Чернокнижник 2: Армагеддон / Warlock: The Armageddon (Энтони Хикокс / Anthony Hickox) [1993, США, ужасы, фэнтези, WEB-DL 720p] Dub (Хлопушка) + DVO (Нева 1) + AVO (Леонид Володарский) + Sub Rus, Eng + Original Eng

Ответить на тему
 
Автор Сообщение

user ®

Стаж: 7 лет 7 месяцев

Сообщений: 20008

Пост Пост: #1 от 17-Окт-2014 21:30

[Цитировать]

Чернокнижник 2: Армагеддон / Warlock: The Armageddon
Страна: США
Жанр: ужасы, фэнтези
Год выпуска: 1993
Продолжительность: 01:38:08
Перевод 1: Профессиональный (дублированный) Хлопушка
Перевод 2: Профессиональный (двухголосый закадровый) Нева 1
Перевод 3: Авторский (одноголосый закадровый) Леонид Володарский
Cубтитры: русские
Оригинальная аудиодорожка: английский
Режиссер: Энтони Хикокс / Anthony Hickox
В ролях: Джулиан Сэндс, Крис Янг, Пола Маршалл, Джоанна Пакула, Стив Кэхэн, Р.Г. Армстронг, Чарльз Хэллахан, Брюс Гловер, Крэйг Хёрли, Дэвис Гейнс...
Описание: Чернокнижник, единственный сын Сатаны, вернулся, чтобы найти шесть магических камней, которые были потеряны на протяжении веков. Вместе эти камни создают страшную силу, которая отдает мир во власть Сатаны. В распоряжении Чернокнижника только 7 дней (между солнечным и лунным затмениями), и он неумолим в своих поисках.
Сила его магии растет по мере получения каждого камня. Но двое влюбленных встают на его пути. Последним из рода священников — Друидов — Кенни и Саманте открывается их предназначение. Они единственные, кто обладает зеленой магией Друидов, которая может остановить Чернокнижника и спасти мир.
Доп. информация: За звуковые дорожки спасибо vasya141182, серый75, *Jonathan*. Синхронизация переводов - Dreven.
Сэмпл: http://multi-up.com/1006566
Тип релиза: WEB-DL 720p
Контейнер: MKV
Видео: 1280x716 (16:9), 23.976 fps, AVC, ~3969 Kbps, 0.181 bits/pixel
Аудио 1: Russian, 48.0 KHz, AC3, 2 ch, 224 Kbps - Хлопушка
Аудио 2: Russian, 48.0 KHz, AC3, 2 ch, 192 Kbps - Нева 1
Аудио 3: Russian, 48.0 KHz, AC3, 2 ch, 128 Kbps - Леонид Володарский
Аудио 4: English, 48.0 KHz, AAC LC, 2 ch 160 Kbps

MediaInfo
General
Unique ID : 186335319088511300899748828755288719223 (0x8C2EE087DA5AA5F79600EA6EAB40FF77)
Complete name : D:\Warlock II - The Armageddon.mkv
Format : Matroska
Format version : Version 4 / Version 2
File size : 3.27 GiB
Duration : 1h 38mn
Overall bit rate : 4 770 Kbps
Movie name :
Encoded date : UTC 2014-10-16 19:35:33
Writing application : mkvmerge v7.2.0 ('On Every Street') 64bit built on Sep 13 2014 15:52:10
Writing library : libebml v1.3.0 + libmatroska v1.4.1
DURATION : 01:38:08.106000000
NUMBER_OF_FRAMES : 276005
NUMBER_OF_BYTES : 118788710
_STATISTICS_WRITING_APP : mkvmerge v7.2.0 ('On Every Street') 64bit built on Sep 13 2014 15:52:10
_STATISTICS_WRITING_DATE_UTC : 2014-10-16 19:35:33
_STATISTICS_TAGS : BPS DURATION NUMBER_OF_FRAMES NUMBER_OF_BYTES
Video
ID : 1
Format : AVC
Format/Info : Advanced Video Codec
Format profile : High@L3.1
Format settings, CABAC : No
Format settings, ReFrames : 2 frames
Codec ID : V_MPEG4/ISO/AVC
Duration : 1h 38mn
Width : 1 280 pixels
Height : 716 pixels
Display aspect ratio : 16:9
Frame rate mode : Constant
Frame rate : 23.976 fps
Color space : YUV
Chroma subsampling : 4:2:0
Bit depth : 8 bits
Scan type : Progressive
Language : English
Default : Yes
Forced : No
Color primaries : BT.709
Transfer characteristics : BT.709
Matrix coefficients : BT.709
Audio #1
ID : 2
Format : AC-3
Format/Info : Audio Coding 3
Mode extension : CM (complete main)
Format settings, Endianness : Big
Codec ID : A_AC3
Duration : 1h 38mn
Bit rate mode : Constant
Bit rate : 224 Kbps
Channel(s) : 2 channels
Channel positions : Front: L R
Sampling rate : 48.0 KHz
Bit depth : 16 bits
Compression mode : Lossy
Stream size : 157 MiB (5%)
Title : Хлопушка
Language : Russian
Default : Yes
Forced : No
Audio #2
ID : 3
Format : AC-3
Format/Info : Audio Coding 3
Mode extension : CM (complete main)
Format settings, Endianness : Big
Codec ID : A_AC3
Duration : 1h 38mn
Bit rate mode : Constant
Bit rate : 192 Kbps
Channel(s) : 2 channels
Channel positions : Front: L R
Sampling rate : 48.0 KHz
Bit depth : 16 bits
Compression mode : Lossy
Stream size : 135 MiB (4%)
Title : Нева 1
Language : Russian
Default : No
Forced : No
Audio #3
ID : 4
Format : AC-3
Format/Info : Audio Coding 3
Mode extension : CM (complete main)
Format settings, Endianness : Big
Codec ID : A_AC3
Duration : 1h 38mn
Bit rate mode : Constant
Bit rate : 128 Kbps
Channel(s) : 2 channels
Channel positions : Front: L R
Sampling rate : 48.0 KHz
Bit depth : 16 bits
Compression mode : Lossy
Stream size : 89.8 MiB (3%)
Title : Леонид Володарский
Language : Russian
Default : No
Forced : No
Audio #4
ID : 5
Format : AAC
Format/Info : Advanced Audio Codec
Format profile : LC
Codec ID : A_AAC
Duration : 1h 38mn
Channel(s) : 2 channels
Channel positions : Front: L R
Sampling rate : 48.0 KHz
Compression mode : Lossy
Language : English
Default : No
Forced : No
Text #1
ID : 6
Format : UTF-8
Codec ID : S_TEXT/UTF8
Codec ID/Info : UTF-8 Plain Text
Language : Russian
Default : No
Forced : No
Text #2
ID : 7
Format : UTF-8
Codec ID : S_TEXT/UTF8
Codec ID/Info : UTF-8 Plain Text
Language : English
Default : No
Forced : No
Menu
00:00:00.000 : en:Chapter 1
00:05:58.000 : en:Chapter 2
00:14:45.000 : en:Chapter 3
00:22:41.000 : en:Chapter 4
00:32:37.000 : en:Chapter 5
00:42:07.000 : en:Chapter 6
00:52:57.000 : en:Chapter 7
01:01:51.000 : en:Chapter 8
01:10:01.000 : en:Chapter 9
01:17:09.000 : en:Chapter 10
01:25:39.000 : en:Chapter 11
01:33:52.000 : en:Chapter 12
Скриншоты
Скачать

Скачать торрент!

Как скачивать? · Что такое торрент? · Рейтинг и ограничения

Сайт не распространяет и не хранит электронные версии произведений, а лишь предоставляет доступ к создаваемому пользователями каталогу ссылок на торрент-файлы, которые содержат только списки хеш-сумм

[Профиль] [ЛС]
Показать сообщения:    
Ответить на тему

Текущее время: Сегодня 14:13

Часовой пояс: GMT + 4



Вы не можете начинать темы
Вы не можете отвечать на сообщения
Вы не можете редактировать свои сообщения
Вы не можете удалять свои сообщения
Вы не можете голосовать в опросах
Вы не можете прикреплять файлы к сообщениям
Вы не можете скачивать файлы