Моя Борьба / Mein Kampf (Урс Одерматт / Urs Odermatt) [2009, Австрия, Германия, Швейцария, драма, комедия, BDRip 720p] MVO (СВ-Дубль) + Sub Eng + Original Ger

Ответить на тему
 
Автор Сообщение

user ®

Стаж: 7 лет 7 месяцев

Сообщений: 20008

Пост Пост: #1 от 17-Окт-2014 21:30

[Цитировать]

Моя Борьба / Mein Kampf
Страна: Австрия, Германия, Швейцария
Студия: arte, Dor Film Produktionsgesellschaft GmbH и др.
Жанр: драма, комедия
Год выпуска: 2009
Продолжительность: 01:50:46
Перевод: Профессиональный (многоголосый закадровый) СВ-Дубль по заказу ГТРК "Культура"
Cубтитры: английские
Оригинальная аудиодорожка: немецкий
Режиссер: Урс Одерматт / Urs Odermatt
В ролях: Гёц Георге, Том Шиллинг, Анна Унтербергер, Бернд Биркхан, Вольф Бахофнер, Элизабет Орт, Карин Нойхаузер, Симон Шварц, Пауль Матич, Хеннинг Пекер
Описание: Экранизация одноименной пьесы популярного венгерского драматурга Георга Табори. Чернейшая комедия, рассказывающая о молодых годах Адольфа Гитлера-Шикльгрубера.
Юный Адольф приезжает в Вену, где заводит дружбу с престарелым евреем Шломо Херцлем. Гитлер и не предполагает, что общается с лютым расовым врагом и следует всем советам и пожеланиям нового знакомца.


Sample
Тип релиза: BDRip 720p - SbR
Контейнер: MKV
Видео: MPEG4 AVC Video, H264, 1.85:1, 16:9, 1280x692, 24 fps, 11.7 Mbps
Аудио: Russian (AC3, 2 ch, 192 kbps, 16 bits, 48.0 KHz) - MVO
Аудио 2: German (DTS, 6 ch, 1509 kbps, 24 bits, 48.0 KHz) - оригинал
Формат субтитров: softsub (SRT)

MediaInfo
General
Unique ID : 236388799428784594244895648691352445597 (0xB1D6D3A4D2F0D6D5A4327DAE162B229D)
Complete name : E:\1\Mein Kampf 2009.BDRip 720p-SbR.mkv
Format : Matroska
Format version : Version 4 / Version 2
File size : 10.6 GiB
Duration : 1h 50mn
Overall bit rate : 13.7 Mbps
Encoded date : UTC 2014-10-16 18:23:03
Writing application : mkvmerge v6.1.0 ('Old Devil') built on Mar 2 2013 14:32:37
Writing library : libebml v1.3.0 + libmatroska v1.4.0
Video
ID : 1
Format : AVC
Format/Info : Advanced Video Codec
Format profile : High@L4.1
Format settings, CABAC : Yes
Format settings, ReFrames : 9 frames
Codec ID : V_MPEG4/ISO/AVC
Duration : 1h 50mn
Bit rate : 11.7 Mbps
Width : 1 280 pixels
Height : 692 pixels
Display aspect ratio : 1.85:1
Frame rate mode : Constant
Frame rate : 24.000 fps
Color space : YUV
Chroma subsampling : 4:2:0
Bit depth : 8 bits
Scan type : Progressive
Bits/(Pixel*Frame) : 0.551
Stream size : 9.06 GiB (86%)
Writing library : x264 core 142 r2453 ea0ca51
Encoding settings : cabac=1 / ref=9 / deblock=1:-2:-2 / analyse=0x3:0x133 / me=umh / subme=11 / psy=1 / psy_rd=1.00:0.00 / mixed_ref=1 / me_range=32 / chroma_me=1 / trellis=2 / 8x8dct=1 / cqm=0 / deadzone=21,11 / fast_pskip=1 / chroma_qp_offset=-2 / threads=12 / lookahead_threads=2 / sliced_threads=0 / nr=0 / decimate=1 / interlaced=0 / bluray_compat=0 / constrained_intra=0 / bframes=9 / b_pyramid=2 / b_adapt=2 / b_bias=0 / direct=1 / weightb=1 / open_gop=0 / weightp=2 / keyint=250 / keyint_min=24 / scenecut=40 / intra_refresh=0 / rc_lookahead=60 / rc=crf / mbtree=0 / crf=16.5 / qcomp=0.60 / qpmin=0 / qpmax=69 / qpstep=4 / vbv_maxrate=62500 / vbv_bufsize=78125 / crf_max=0.0 / nal_hrd=none / filler=0 / ip_ratio=1.40 / pb_ratio=1.30 / aq=1:0.80
Language : German
Default : Yes
Forced : Yes
Color primaries : BT.709
Transfer characteristics : BT.709
Matrix coefficients : BT.709
Audio #1
ID : 2
Format : AC-3
Format/Info : Audio Coding 3
Mode extension : CM (complete main)
Format settings, Endianness : Big
Codec ID : A_AC3
Duration : 1h 50mn
Bit rate mode : Constant
Bit rate : 192 Kbps
Channel count : 2 channels
Channel positions : Front: L R
Sampling rate : 48.0 KHz
Bit depth : 16 bits
Compression mode : Lossy
Stream size : 152 MiB (1%)
Title : MVO
Language : Russian
Default : Yes
Forced : Yes
Audio #2
ID : 3
Format : DTS
Format/Info : Digital Theater Systems
Mode : 16
Format settings, Endianness : Big
Codec ID : A_DTS
Duration : 1h 50mn
Bit rate mode : Constant
Bit rate : 1 509 Kbps
Channel count : 6 channels
Channel positions : Front: L C R, Side: L R, LFE
Sampling rate : 48.0 KHz
Bit depth : 24 bits
Compression mode : Lossy
Stream size : 1.17 GiB (11%)
Language : German
Default : No
Forced : No
Text
ID : 4
Format : UTF-8
Codec ID : S_TEXT/UTF8
Codec ID/Info : UTF-8 Plain Text
Language : English
Default : No
Forced : No
Menu #1
00:00:00.000 : en:Chapter 1
00:09:54.000 : en:Chapter 2
00:18:38.000 : en:Chapter 3
00:26:40.000 : en:Chapter 4
00:38:30.000 : en:Chapter 5
00:43:30.000 : en:Chapter 6
00:51:33.000 : en:Chapter 7
01:00:19.000 : en:Chapter 8
01:04:40.000 : en:Chapter 9
01:13:26.000 : en:Chapter 10
01:20:34.000 : en:Chapter 11
01:33:16.000 : en:Chapter 12
01:38:40.000 : en:Chapter 13
01:41:45.000 : en:Chapter 14
01:45:05.000 : en:Chapter 15
01:47:20.000 : en:Chapter 16
Menu #2
00:00:00.000 : en:00:00:00.000
00:09:54.000 : en:00:09:54.000
00:18:38.000 : en:00:18:38.000
00:26:40.000 : en:00:26:40.000
00:38:30.000 : en:00:38:30.000
00:43:30.000 : en:00:43:30.000
00:51:33.000 : en:00:51:33.000
01:00:19.000 : en:01:00:19.000
01:04:40.000 : en:01:04:40.000
01:13:26.000 : en:01:13:26.000
01:20:34.000 : en:01:20:34.000
01:33:16.000 : en:01:33:16.000
01:38:40.000 : en:01:38:40.000
01:41:45.000 : en:01:41:45.000
01:45:05.000 : en:01:45:05.000
01:47:20.000 : en:01:47:20.000
Скриншоты
Скачать

Скачать торрент!

Как скачивать? · Что такое торрент? · Рейтинг и ограничения

Сайт не распространяет и не хранит электронные версии произведений, а лишь предоставляет доступ к создаваемому пользователями каталогу ссылок на торрент-файлы, которые содержат только списки хеш-сумм

[Профиль] [ЛС]
Показать сообщения:    
Ответить на тему

Текущее время: Сегодня 00:36

Часовой пояс: GMT + 4



Вы не можете начинать темы
Вы не можете отвечать на сообщения
Вы не можете редактировать свои сообщения
Вы не можете удалять свои сообщения
Вы не можете голосовать в опросах
Вы не можете прикреплять файлы к сообщениям
Вы не можете скачивать файлы