Непрощенный / Unforgiven / Yurusarezaru mono (Ли Сан Иль / Lee Sang Il) [2014, Япония, драма, HDRip] VO (BadCatStudio) + Original + Sub Rus + Sub Eng

Ответить на тему
 
Автор Сообщение

user ®

Стаж: 13 лет

Сообщений: 15071

Пост Пост: #1 от 17-Окт-2014 09:35

[Цитировать]

Непрощенный / Yurusarezaru mono Год выпуска: 2013
Страна: Япония
Жанр: драма
Продолжительность: 02:15:45
Перевод: одноголосый, закадровый [BadCatStudio]
Режиссёр: Ли Сан Иль / Lee Sang Il-В ролях: Кен Ватанабэ, Дзюн Кунимура, Сиори Куцуна, Юя Ягира, Коити Сато, Эйко Койке и др.-Описание: Римейк фильма Клинта Иствуда 1992г. События происходят в Хоккайдо, Япония, в 1880-х годах. Дзюбэй Камата, который поддерживает сторону правительства сегуната Эдо, убивает многих людей. Его имя печально известно в Киото. Но, когда битва при Горьокаку должна вот-вот закончиться, Дзюбэй исчезает. 10 лет спустя Дзюбэй живет со своими детьми. Он едва сводит концы с концами. Его жена умерла, и он решил никогда больше не браться за меч, но нищета не оставляет ему выбора...-Качество: HDRip [[url=http://***/forum/viewtopic.php?t=4845844]Исходник[/url]]
Формат: AVI
Видео кодек: XviD
Аудио кодек: AC3
Видео: 720х304, 23.976 fps, xvid, 1721 kbps avg, ~0.328 bit/pixel
Аудио #1: 48 kHz, AC3, 2 ch, 192.00 kbps avg MVO [BadCatStudio]
Аудио #2: 48 kHz, AC3, 6 ch, 384.00 kbps avg Original (JPN)
Субтитры: русские (Hentai), английские (Scooby)-Перевод: Hentai
Закадровый текст читал: Андрей Зверев
Работа со звуком: Дмитрий Слободенюк
Работа с видео: Александр Артемов-Сэмпл / IMDB / КиноПоиск-MediaInfo
General
Complete name                            : D:\НБФ\Unforgiven\Unforgiven.2013.HDRip.Rus.Jpn-BadCatStudio\Unforgiven.2013.HDRip.Rus.Jpn-BadCatStudio.avi
Format                                   : AVI
Format/Info                              : Audio Video Interleave
Format profile                           : OpenDML
File size                                : 2.19 GiB
Duration                                 : 2h 15mn
Overall bit rate                         : 2 314 Kbps
Writing application                      : VirtualDubMod 1.5.10.2 (build 2542/release)
Writing library                          : VirtualDubMod build 2542/release
Video
ID                                       : 0
Format                                   : MPEG-4 Visual
Format profile                           : Advanced Simple@L5
Format settings, BVOP                    : 2
Format settings, QPel                    : No
Format settings, GMC                     : No warppoints
Format settings, Matrix                  : Default (MPEG)
Codec ID                                 : XVID
Codec ID/Hint                            : XviD
Duration                                 : 2h 15mn
Bit rate                                 : 1 721 Kbps
Width                                    : 720 pixels
Height                                   : 304 pixels
Display aspect ratio                     : 2.35:1
Frame rate                               : 23.976 fps
Color space                              : YUV
Chroma subsampling                       : 4:2:0
Bit depth                                : 8 bits
Scan type                                : Progressive
Compression mode                         : Lossy
Bits/(Pixel*Frame)                       : 0.328
Stream size                              : 1.63 GiB (74%)
Writing library                          : XviD 1.2.0.dev47 (UTC 2006-11-01)
Audio #1
ID                                       : 1
Format                                   : AC-3
Format/Info                              : Audio Coding 3
Mode extension                           : CM (complete main)
Format settings, Endianness              : Big
Codec ID                                 : 2000
Duration                                 : 2h 15mn
Bit rate mode                            : Constant
Bit rate                                 : 192 Kbps
Channel(s)                               : 2 channels
Channel positions                        : Front: L R
Sampling rate                            : 48.0 KHz
Bit depth                                : 16 bits
Compression mode                         : Lossy
Stream size                              : 186 MiB (8%)
Alignment                                : Split accross interleaves
Interleave, duration                     : 42 ms (1.00 video frame)
Interleave, preload duration             : 500 ms
Audio #2
ID                                       : 2
Format                                   : AC-3
Format/Info                              : Audio Coding 3
Mode extension                           : CM (complete main)
Format settings, Endianness              : Big
Codec ID                                 : 2000
Duration                                 : 2h 15mn
Bit rate mode                            : Constant
Bit rate                                 : 384 Kbps
Channel(s)                               : 6 channels
Channel positions                        : Front: L C R, Side: L R, LFE
Sampling rate                            : 48.0 KHz
Bit depth                                : 16 bits
Compression mode                         : Lossy
Stream size                              : 373 MiB (17%)
Alignment                                : Split accross interleaves
Interleave, duration                     : 42 ms (1.00 video frame)
Interleave, preload duration             : 500 ms
Скриншоты
Скачать

Скачать торрент! Непрощенный / Unforgiven / Yurusarezaru mono (Ли Сан Иль / Lee Sang Il) [2014, Япония, драма, HDRip] VO (BadCatStudio) + Original + Sub Rus + Sub Eng

Как скачивать? · Что такое торрент? · Рейтинг и ограничения

Сайт не распространяет и не хранит электронные версии произведений, а лишь предоставляет доступ к создаваемому пользователями каталогу ссылок на торрент-файлы, которые содержат только списки хеш-сумм

[Профиль] [ЛС]
Показать сообщения:    
Ответить на тему

Текущее время: Сегодня 15:25

Часовой пояс: GMT + 4



Вы не можете начинать темы
Вы не можете отвечать на сообщения
Вы не можете редактировать свои сообщения
Вы не можете удалять свои сообщения
Вы не можете голосовать в опросах
Вы не можете прикреплять файлы к сообщениям
Вы не можете скачивать файлы