Доспехи Бога 3: Миссия Зодиак / Chinese Zodiac (Джеки Чан / Jackie Chan) [2012, Гонконг, Китай, боевик, комедия, приключения, HDRip-AVC] Dub + Sub Rus Eng

Ответить на тему
 
Автор Сообщение

user ®

Стаж: 13 лет

Сообщений: 15071

Пост Пост: #1 от 17-Окт-2014 09:35

[Цитировать]

Доспехи Бога 3: Миссия Зодиак / Chinese Zodiac
Страна: Гонконг, Китай
Жанр: боевик, комедия, приключения
Год выпуска: 2012
Продолжительность: 02:02:56
Перевод: Профессиональный (дублированный)
Cубтитры: русские, английские
Оригинальная аудиодорожка: нет
Режиссер: Джеки Чан / Jackie Chan
В ролях: Джеки Чан, Квон Сан У, Ляо Фань, Синтхун Яо, Чжан Ланьсинь, Лаура Вейссбеккер, Оливер Платт, Шу Ци, Дэниэл Ву, Кэйтлин Дешель
Описание: Группа в обновленном составе направляется на тропический остров, где среди обломков севшего на мель корабля спрятаны еще две статуэтки. В тропиках Джею Си и его друзьям противостоит банда разношерстных пиратов. Только благодаря безупречным боевым навыкам героя удается одержать верх. Вернувшись домой, Джей Си с удивлением узнает, что таинственный заказчик уже собрал шесть других статуэток. Ничего удивительного в том, что Ястреб собирается преподать ему урок хороших манер
Сэмпл: http://multi-up.com/1006349
Качество видео: HDRip-AVC
Формат видео: MKV
Видео: MPEG-4 AVC, 2086 Кбит/с, 1024x428, 24 кадра/сек
Аудио: AC3, 6 ch, 448 Кбит/с, 48,0 КГц
Формат субтитров: softsub (SRT)
MediaInfo
Общее
Уникальный идентификатор : 219824374483263889567480958818947291449 (0xA560A270B6505EE1A375FBACDA0DD939)
Полное имя : C:\Users\Семен\Downloads\Dospehi.boga.3.2012.x264.HDRip.(AVC)_kaspr.mkv
Формат : Matroska
Версия формата : Version 2
Размер файла : 2,18 Гбайт
Продолжительность : 2 ч. 2 м.
Общий поток : 2536 Кбит/сек
Название фильма : Доспехи Бога 3 (Rip by kaspr)
Дата кодирования : UTC 2013-03-12 06:06:14
Программа кодирования : mkvmerge v5.7.0 ('The Whirlwind') built on Aug 7 2012 14:11:40
Библиотека кодирования : libebml v1.2.3 + libmatroska v1.3.0
Видео
Идентификатор : 1
Формат : AVC
Формат/Информация : Advanced Video Codec
Профиль формата : High@L4.1
Параметр CABAC формата : Да
Параметр ReFrames формата : 8 кадров
Идентификатор кодека : V_MPEG4/ISO/AVC
Продолжительность : 2 ч. 2 м.
Битрейт : 2086 Кбит/сек
Ширина : 1024 пикселя
Высота : 428 пикселей
Соотношение сторон : 2,40:1
Режим частоты кадров : Постоянный
Частота кадров : 24,000 кадра/сек
Цветовое пространство : YUV
Субдискретизация насыщенности : 4:2:0
Битовая глубина : 8 бит
Тип развёртки : Прогрессивная
Бит/(Пиксели*Кадры) : 0.198
Размер потока : 1,75 Гбайт (80%)
Заголовок : Доспехи Бога 3 (Rip by kaspr)
Библиотека кодирования : x264 core 129 r2245 bc13772
Настройки программы : cabac=1 / ref=8 / deblock=1:-3:-3 / analyse=0x3:0x133 / me=umh / subme=11 / psy=1 / psy_rd=1.00:0.10 / mixed_ref=1 / me_range=32 / chroma_me=1 / trellis=2 / 8x8dct=1 / cqm=0 / deadzone=21,11 / fast_pskip=0 / chroma_qp_offset=-3 / threads=12 / lookahead_threads=2 / sliced_threads=0 / nr=0 / decimate=0 / interlaced=0 / bluray_compat=0 / constrained_intra=0 / bframes=6 / b_pyramid=2 / b_adapt=2 / b_bias=0 / direct=3 / weightb=1 / open_gop=0 / weightp=2 / keyint=240 / keyint_min=22 / scenecut=40 / intra_refresh=0 / rc_lookahead=40 / rc=2pass / mbtree=1 / bitrate=2086 / ratetol=1.0 / qcomp=0.60 / qpmin=0 / qpmax=69 / qpstep=4 / cplxblur=20.0 / qblur=0.5 / ip_ratio=1.40 / aq=1:1.00
Default : Да
Forced : Нет
Аудио
Идентификатор : 2
Формат : AC-3
Формат/Информация : Audio Coding 3
Расширение режима : CM (complete main)
Параметр Endianness формата : Big
Идентификатор кодека : A_AC3
Продолжительность : 2 ч. 2 м.
Вид битрейта : Постоянный
Битрейт : 448 Кбит/сек
Каналы : 6 каналов
Расположение каналов : Front: L C R, Side: L R, LFE
Частота : 48,0 КГц
Битовая глубина : 16 бит
Метод сжатия : С потерями
Размер потока : 394 Мбайт (18%)
Заголовок : Дубляж
Язык : Russian
Default : Да
Forced : Да
Текст #1
Идентификатор : 3
Формат : UTF-8
Идентификатор кодека : S_TEXT/UTF8
Идентификатор кодека/Информация : UTF-8 Plain Text
Язык : Russian
Default : Нет
Forced : Нет
Текст #2
Идентификатор : 4
Формат : UTF-8
Идентификатор кодека : S_TEXT/UTF8
Идентификатор кодека/Информация : UTF-8 Plain Text
Язык : English
Default : Нет
Forced : Нет
Скриншот c названием фильма Скриншоты
Скачать

Скачать торрент! Доспехи Бога 3: Миссия Зодиак / Chinese Zodiac (Джеки Чан / Jackie Chan) [2012, Гонконг, Китай, боевик, комедия, приключения, HDRip-AVC] Dub + Sub Rus Eng

Как скачивать? · Что такое торрент? · Рейтинг и ограничения

Сайт не распространяет и не хранит электронные версии произведений, а лишь предоставляет доступ к создаваемому пользователями каталогу ссылок на торрент-файлы, которые содержат только списки хеш-сумм

[Профиль] [ЛС]
Показать сообщения:    
Ответить на тему

Текущее время: Сегодня 17:14

Часовой пояс: GMT + 4



Вы не можете начинать темы
Вы не можете отвечать на сообщения
Вы не можете редактировать свои сообщения
Вы не можете удалять свои сообщения
Вы не можете голосовать в опросах
Вы не можете прикреплять файлы к сообщениям
Вы не можете скачивать файлы