Сглазили / Jinxed (Стивен Херек / Steven Herek) [2013, США, Детский, семейный, HDTV 1080i] Dub (SDI Media (Nickelodeon)) + Original Eng

Ответить на тему
 
Автор Сообщение

user ®

Стаж: 7 лет 7 месяцев

Сообщений: 20008

Пост Пост: #1 от 17-Окт-2014 03:15

[Цитировать]

Сглазили / Jinxed
Страна: США
Студия: Pacific Bay Entertainment, Nickelodeon Productions
Жанр: Детский, семейный
Год выпуска: 2013
Продолжительность: 01:07:34
Перевод: Профессиональный (дублированный) SDI Media (Nickelodeon)
Cубтитры: нет
Оригинальная аудиодорожка: английский
Режиссер: Стивен Херек / Steven Herek
В ролях: Сиара Браво, Джек Гриффо, Киган-Коннор Трейси, Баркели Даффилд, Джекоб Бертранд
Описание: Много поколений назад семью Мёрфи сглазили. Если в каком-нибудь деле был хоть небольшой шанс на неудачу, то он обязательно сыграет. Мэг Мёрфи отправляется в путешествие, чтобы разрушить проклятие и зажить нормальной жизнью, о которой она всегда мечтала.
Доп. информация: В релизе вырезалась где-то минута из-за не очень идеального приёма сигнала IPTV оператора.
Сэмпл: http://multi-up.com/1006252
Тип релиза: HDTV 1080i
Контейнер: TS
Видео: AVC, PAL, 1920x1080, 16:9, 6364 kbps, 25 fps
Аудио: Русский, AC-3, 2 ch, 48 kHz, 384 kbps
Аудио 2: English, AC-3, 2 ch, 48 kHz, 384 kbps
MediaInfo
Общее
Идентификатор : 1 (0x1)
Полное имя : D:\Video\Jinxed [HDTV.1080i].ts
Формат : MPEG-TS
Размер файла : 3,48 Гбайт
Продолжительность : 1 ч. 6 м.
Режим общего битрейта : Переменный
Общий поток : 7511 Кбит/сек
Видео
Идентификатор : 326 (0x146)
Идентификатор меню : 1 (0x1)
Формат : AVC
Формат/Информация : Advanced Video Codec
Профиль формата : High@L4.0
Параметр CABAC формата : Да
Параметр ReFrames формата : 4 кадра
Идентификатор кодека : 27
Продолжительность : 1 ч. 6 м.
Битрейт : 6364 Кбит/сек
Ширина : 1920 пикселей
Высота : 1080 пикселей
Соотношение сторон : 16:9
Частота кадров : 25,000 кадров/сек
Стандарт вещания : Component
Цветовое пространство : YUV
Субдискретизация насыщенности : 4:2:0
Битовая глубина : 8 бит
Тип развёртки : Чересстрочная
Порядок развёртки : Верхнее поле первое
Бит/(Пиксели*Кадры) : 0.123
Размер потока : 2,95 Гбайт (85%)
Основные цвета : BT.709
Характеристики трансфера : BT.709
Коэффициенты матрицы : BT.709
Аудио #1
Идентификатор : 406 (0x196)
Идентификатор меню : 1 (0x1)
Формат : AC-3
Формат/Информация : Audio Coding 3
Расширение режима : CM (complete main)
Параметр Endianness формата : Big
Идентификатор кодека : 6
Продолжительность : 1 ч. 6 м.
Вид битрейта : Постоянный
Битрейт : 384 Кбит/сек
Каналы : 2 канала
Расположение каналов : Front: L R
Частота : 48,0 КГц
Битовая глубина : 16 бит
Метод сжатия : С потерями
Размер потока : 182 Мбайт (5%)
Язык : Russian
Аудио #2
Идентификатор : 416 (0x1A0)
Идентификатор меню : 1 (0x1)
Формат : AC-3
Формат/Информация : Audio Coding 3
Расширение режима : CM (complete main)
Параметр Endianness формата : Big
Идентификатор кодека : 6
Продолжительность : 1 ч. 6 м.
Вид битрейта : Постоянный
Битрейт : 384 Кбит/сек
Каналы : 2 канала
Расположение каналов : Front: L R
Частота : 48,0 КГц
Битовая глубина : 16 бит
Метод сжатия : С потерями
Размер потока : 182 Мбайт (5%)
Язык : English
Скриншоты ЗА ПРЕДОСТАВЛЕННУЮ ЗАПИСЬ ОГРОМНОЕ СПАСИБО Pah'OK
Скачать

Скачать торрент!

Как скачивать? · Что такое торрент? · Рейтинг и ограничения

Сайт не распространяет и не хранит электронные версии произведений, а лишь предоставляет доступ к создаваемому пользователями каталогу ссылок на торрент-файлы, которые содержат только списки хеш-сумм

[Профиль] [ЛС]
Показать сообщения:    
Ответить на тему

Текущее время: Сегодня 05:58

Часовой пояс: GMT + 4



Вы не можете начинать темы
Вы не можете отвечать на сообщения
Вы не можете редактировать свои сообщения
Вы не можете удалять свои сообщения
Вы не можете голосовать в опросах
Вы не можете прикреплять файлы к сообщениям
Вы не можете скачивать файлы