Мисс "45 калибр" / Ангел мщения / Ms. 45 / Angel of Vengeance (Абель Феррара / Abel Ferrara) [1981, США, триллер, драма, криминал, BDRip 720p] MVO (ТК Россия) + AVO (С. Кузнецов) + Sub Rus, Eng + Original Eng

Ответить на тему
 
Автор Сообщение

user ®

Стаж: 7 лет 7 месяцев

Сообщений: 20008

Пост Пост: #1 от 17-Окт-2014 00:05

[Цитировать]

Мисс "45 калибр" / Ангел мщения / Ms. 45 / Angel of Vengeance
Страна: США
Студия: Navaron Films
Жанр: триллер, драма, криминал
Год выпуска: 1981
Продолжительность: 01:20:51
Перевод: Профессиональный (многоголосый закадровый) ТК Россия
Перевод 2: Авторский (одноголосый закадровый) С. Кузнецов
Cубтитры: русские, английские
Оригинальная аудиодорожка: английский
Режиссер: Абель Феррара / Abel Ferrara
В ролях: Зои Ланд, Альбер Зинкис, Хелен МакГара, Дарлин Стато, Абель Феррара, Найк Закманоглу, Джэйн Кеннеди, Джерри Игараси, Майкл Минард, Бонни Уильямс, Джек Тибо, Эвелин Смит, Николас Сент-Джон, Стив Дэш, Джо Перс
Описание: Главная героиня картины по имени Тана, красивая и немая девушка из Нью-Йорка, становится жертвой нападения. Однажды, когда она возвращалась домой с работы, ее жестоко изнасиловал незнакомец в маске (его роль исполнил сам режиссер ленты, Абель Феррара). И дикий кошмар на этом не закончился: едва оправившись от шока и добравшись до дома, девушка подвергается изнасилованию во второй раз. Но на этот раз обидчик не ушел от расплаты: Тана прикончила мерзавца, размозжив ему голову утюгом! Почувствовав вкус к убийству и вооружившись пистолетом 45-го калибра, героиня пускается в зловещий, кровавый рейд отмщения мужчинам, безжалостно истребляя всех несчастных представителей сильного пола, обративших на нее свое внимание!

Sample
Тип релиза: BDRip 720p - CtrlHD
Контейнер: MKV
Видео: MPEG4 AVC Video, H264, 16:9, 1280x694, 23,976 fps, 8500 Kbps
Аудио: Russian (AC3, 2 ch, 192 kbps, 16 bits, 48.0 KHz) - ТК Россия
Аудио 2: Russian (AC3, 2 ch, 192 kbps, 16 bits, 48.0 KHz) - С. Кузнецов
Аудио 3: English (FLAC, 2 ch, 393 kbps, 16 bits, 48.0 KHz) - оригинал
Формат субтитров: softsub (SRT)

MediaInfo
General
Unique ID : 187758843600189029654985579574902138542 (0x8D4109B5360C7B48B9BEF6A3028426AE)
Complete name : E:\1\Ms 45 (Angel Of Vengeance) 1981\Ms 45 1981 BDRip 720p-CtrlHD.mkv
Format : Matroska
Format version : Version 4 / Version 2
File size : 5.24 GiB
Duration : 1h 20mn
Overall bit rate mode : Variable
Overall bit rate : 9 274 Kbps
Encoded date : UTC 2014-09-22 23:58:55
Writing application : mkvmerge v6.1.0 ('Old Devil') built on Mar 2 2013 14:32:37
Writing library : libebml v1.3.0 + libmatroska v1.4.0
Video
ID : 1
Format : AVC
Format/Info : Advanced Video Codec
Format profile : High@L4.1
Format settings, CABAC : Yes
Format settings, ReFrames : 9 frames
Codec ID : V_MPEG4/ISO/AVC
Duration : 1h 20mn
Nominal bit rate : 8 500 Kbps
Width : 1 280 pixels
Height : 694 pixels
Display aspect ratio : 1.85:1
Frame rate mode : Constant
Frame rate : 23.976 fps
Color space : YUV
Chroma subsampling : 4:2:0
Bit depth : 8 bits
Scan type : Progressive
Bits/(Pixel*Frame) : 0.399
Writing library : x264 core 133 r2334 a3ac64b
Encoding settings : cabac=1 / ref=9 / deblock=1:-3:-3 / analyse=0x3:0x113 / me=tesa / subme=11 / psy=1 / psy_rd=1.10:0.02 / mixed_ref=1 / me_range=24 / chroma_me=1 / trellis=2 / 8x8dct=1 / cqm=0 / deadzone=21,11 / fast_pskip=0 / chroma_qp_offset=-5 / threads=12 / lookahead_threads=2 / sliced_threads=0 / nr=0 / decimate=0 / interlaced=0 / bluray_compat=0 / constrained_intra=0 / bframes=8 / b_pyramid=2 / b_adapt=2 / b_bias=0 / direct=3 / weightb=1 / open_gop=0 / weightp=2 / keyint=250 / keyint_min=23 / scenecut=40 / intra_refresh=0 / rc=2pass / mbtree=0 / bitrate=8500 / ratetol=1.0 / qcomp=0.60 / qpmin=0 / qpmax=69 / qpstep=4 / cplxblur=20.0 / qblur=0.5 / ip_ratio=1.20 / pb_ratio=1.30 / aq=1:0.85
Language : English
Default : Yes
Forced : No
Audio #1
ID : 2
Format : AC-3
Format/Info : Audio Coding 3
Mode extension : CM (complete main)
Format settings, Endianness : Big
Codec ID : A_AC3
Duration : 1h 20mn
Bit rate mode : Constant
Bit rate : 192 Kbps
Channel count : 2 channels
Channel positions : Front: L R
Sampling rate : 48.0 KHz
Bit depth : 16 bits
Compression mode : Lossy
Stream size : 111 MiB (2%)
Title : ТК Россия
Language : Russian
Default : Yes
Forced : No
Audio #2
ID : 3
Format : AC-3
Format/Info : Audio Coding 3
Mode extension : CM (complete main)
Format settings, Endianness : Big
Codec ID : A_AC3
Duration : 1h 20mn
Bit rate mode : Constant
Bit rate : 192 Kbps
Channel count : 2 channels
Channel positions : Front: L R
Sampling rate : 48.0 KHz
Bit depth : 16 bits
Compression mode : Lossy
Stream size : 111 MiB (2%)
Title : С. Кузнецов
Language : Russian
Default : No
Forced : No
Audio #3
ID : 4
Format : FLAC
Format/Info : Free Lossless Audio Codec
Codec ID : A_FLAC
Duration : 1h 20mn
Bit rate mode : Variable
Channel count : 2 channels
Sampling rate : 48.0 KHz
Bit depth : 16 bits
Writing library : libFLAC 20080709 (UTC 2008-07-09)
Language : English
Default : No
Forced : No
Text #1
ID : 5
Format : UTF-8
Codec ID : S_TEXT/UTF8
Codec ID/Info : UTF-8 Plain Text
Language : Russian
Default : No
Forced : No
Text #2
ID : 6
Format : UTF-8
Codec ID : S_TEXT/UTF8
Codec ID/Info : UTF-8 Plain Text
Language : English
Default : No
Forced : No
Menu
00:00:00.000 : en:00:00:00.000
00:12:00.803 : en:00:12:00.803
00:21:13.022 : en:00:21:13.022
00:31:26.009 : en:00:31:26.009
00:47:12.455 : en:00:47:12.455
00:57:40.874 : en:00:57:40.874
01:04:15.977 : en:01:04:15.977
01:16:51.232 : en:01:16:51.232
Скриншоты
Скачать

Скачать торрент!

Как скачивать? · Что такое торрент? · Рейтинг и ограничения

Сайт не распространяет и не хранит электронные версии произведений, а лишь предоставляет доступ к создаваемому пользователями каталогу ссылок на торрент-файлы, которые содержат только списки хеш-сумм

[Профиль] [ЛС]
Показать сообщения:    
Ответить на тему

Текущее время: Сегодня 08:28

Часовой пояс: GMT + 4



Вы не можете начинать темы
Вы не можете отвечать на сообщения
Вы не можете редактировать свои сообщения
Вы не можете удалять свои сообщения
Вы не можете голосовать в опросах
Вы не можете прикреплять файлы к сообщениям
Вы не можете скачивать файлы