Цель вижу (Евгений Сокуров) [2013, Россия, военный, драма, DVDRip-AVC] R5

Ответить на тему
 
Автор Сообщение

user ®

Стаж: 7 лет 7 месяцев

Сообщений: 20008

Пост Пост: #1 от 17-Окт-2014 00:05

[Цитировать]

-Цель вижу Страна: Россия
Жанр: военный, драма
Год выпуска: 2013
Продолжительность: 01:29:03-Оригинальная аудиодорожка: русский-Режиссер: Евгений Сокуров-В ролях-Наталья Анисимова, Александра Булычёва, Эльвира Шияпова, Елена Цыплакова, Сергей Удовик, Варвара Обидор, Екатерина Муратова, Аделина Гизатуллина, Анастасия Лашкова, Татьяна Опарина-Кошеляева-Описание-
Семь девушек, совсем еще юных, выбрали себе нелегкий путь: в начале Великой Отечественной войны они окончили школу снайперов и сразу отправились на фронт. И вот они уже совсем одни пред лицом многочисленных врагов. Как поступить: бежать и спасаться, пока еще есть время, или смело шагнуть навстречу гибели?
-Качество видео: DVDRip
Исходное видео: [url=http://***/forum/viewtopic.php?t=4789516]DVD-9[/url] |Lizard Cinema Trade|-Контейнер: MKV-Видео: AVC, 716x576@1018x576 (16:9), ~2200 kbps, 25 fps,
Аудио: AC-3, 448 kbps, Dolby Digital, 3/2 (L,C,R,l,r) + LFE ch, 48 KHz |Оригинал|-

MediaInfo
x264
VIDEO ENCODING
------------------------------
Encoding video to: F:\Temp\0355.264
x264 Q17.0 716x576 25.000fps (133575 frames)
avs4x264.exe: -L x264_64.exe --crf 17.0 --preset veryslow --profile high --level 4.1 --aq-mode 2 --aq-strength 0.9 --deblock -3:-3 --merange 32 --bframes 10 --direct spatial --qcomp 0.65 --vbv-maxrate 50000 --vbv-bufsize 62500 --subme 11 --no-mbtree --colorprim bt709 --transfer bt709 --colormatrix bt709 --sar 64:45 --output "F:\Temp\0355.264" "F:\Temp\0355.avs"
raw [info]: 716x576p 64:45 @ 25/1 fps (cfr)
x264 [info]: using SAR=64/45
x264 [info]: using cpu capabilities: MMX2 SSE2Fast LZCNT
x264 [info]: profile High, level 4.1
x264 [info]: frame I:1054 Avg QP:16.48 size: 60269
x264 [info]: frame P:30938 Avg QP:17.84 size: 23049
x264 [info]: frame B:101583 Avg QP:20.96 size: 6753
x264 [info]: consecutive B-frames: 2.4% 3.2% 12.8% 22.3% 9.7% 47.4% 1.3% 0.3% 0.1% 0.1% 0.3%
x264 [info]: mb I I16..4: 3.2% 80.0% 16.8%
x264 [info]: mb P I16..4: 0.6% 11.5% 1.1% P16..4: 31.7% 32.9% 15.2% 2.4% 0.3% skip: 4.4%
x264 [info]: mb B I16..4: 0.1% 1.6% 0.1% B16..8: 31.4% 17.9% 3.0% direct: 7.7% skip:38.2% L0:34.0% L1:39.7% BI:26.4%
x264 [info]: 8x8 transform intra:86.5% inter:59.7%
x264 [info]: coded y,uvDC,uvAC intra: 90.1% 75.6% 39.8% inter: 26.8% 16.1% 1.0%
x264 [info]: i16 v,h,dc,p: 17% 13% 6% 64%
x264 [info]: i8 v,h,dc,ddl,ddr,vr,hd,vl,hu: 18% 8% 10% 7% 9% 13% 9% 14% 14%
x264 [info]: i4 v,h,dc,ddl,ddr,vr,hd,vl,hu: 16% 8% 6% 7% 14% 16% 11% 11% 11%
x264 [info]: i8c dc,h,v,p: 26% 31% 25% 17%
x264 [info]: Weighted P-Frames: Y:4.7% UV:2.3%
x264 [info]: ref P L0: 47.2% 12.4% 16.1% 4.7% 4.4% 3.0% 2.8% 1.5% 1.5% 1.1% 1.2% 1.0% 0.9% 0.8% 0.8% 0.6%
x264 [info]: ref B L0: 84.9% 8.2% 2.3% 1.1% 0.8% 0.6% 0.5% 0.3% 0.3% 0.2% 0.2% 0.2% 0.2% 0.1% 0.1%
x264 [info]: ref B L1: 96.7% 3.3%
x264 [info]: kb/s:2189.99
Формат : Matroska
Версия формата : Version 4 / Version 2
Размер файла : 1,64 Гбайт
Продолжительность : 1 ч. 29 м.
Общий поток : 2640 Кбит/сек
Название фильма : Цель вижу (Евгений Сокуров)
Дата кодирования : UTC 2014-10-16 09:07:21
Программа кодирования : mkvmerge v6.1.0 ('Old Devil') built on Mar 4 2013 09:10:42
Библиотека кодирования : libebml v1.3.0 + libmatroska v1.4.0
Видео
Идентификатор : 1
Формат : AVC
Формат/Информация : Advanced Video Codec
Профиль формата : High@L4.1
Параметр CABAC формата : Да
Параметр ReFrames формата : 16 кадров
Идентификатор кодека : V_MPEG4/ISO/AVC
Продолжительность : 1 ч. 29 м.
Битрейт : 2139 Кбит/сек
Ширина : 716 пикселей
Высота : 576 пикселей
Соотношение сторон : 16:9
Соотношение сторон в оригинале : 16:9
Частота кадров : 25,000 кадров/сек
Цветовое пространство : YUV
Субдискретизация насыщенности : 4:2:0
Битовая глубина : 8 бит
Тип развёртки : Прогрессивная
Бит/(Пиксели*Кадры) : 0.207
Размер потока : 1,33 Гбайт (81%)
Заголовок : Цель вижу_DVDRip-AVC_cw.[Torrents.Ru]
Библиотека кодирования : x264 core 142 r2479 dd79a61
Настройки программы : cabac=1 / ref=16 / deblock=1:-3:-3 / analyse=0x3:0x133 / me=umh / subme=11 / psy=1 / psy_rd=1.00:0.00 / mixed_ref=1 / me_range=32 / chroma_me=1 / trellis=2 / 8x8dct=1 / cqm=0 / deadzone=21,11 / fast_pskip=1 / chroma_qp_offset=-2 / threads=4 / lookahead_threads=1 / sliced_threads=0 / nr=0 / decimate=1 / interlaced=0 / bluray_compat=0 / constrained_intra=0 / bframes=10 / b_pyramid=2 / b_adapt=2 / b_bias=0 / direct=1 / weightb=1 / open_gop=0 / weightp=2 / keyint=250 / keyint_min=25 / scenecut=40 / intra_refresh=0 / rc_lookahead=60 / rc=crf / mbtree=0 / crf=17.0 / qcomp=0.65 / qpmin=0 / qpmax=69 / qpstep=4 / vbv_maxrate=50000 / vbv_bufsize=62500 / crf_max=0.0 / nal_hrd=none / filler=0 / ip_ratio=1.40 / pb_ratio=1.30 / aq=2:0.90
Язык : Russian
Default : Да
Forced : Нет
Основные цвета : BT.709-5, BT.1361, IEC 61966-2-4, SMPTE RP177
Характеристики трансфера : BT.709-5, BT.1361
Коэффициенты матрицы : BT.709-5, BT.1361, IEC 61966-2-4 709, SMPTE RP177
Аудио
Идентификатор : 2
Формат : AC-3
Формат/Информация : Audio Coding 3
Расширение режима : CM (complete main)
Параметр Endianness формата : Big
Идентификатор кодека : A_AC3
Продолжительность : 1 ч. 29 м.
Вид битрейта : Постоянный
Битрейт : 448 Кбит/сек
Каналы : 6 каналов
Расположение каналов : Front: L C R, Side: L R, LFE
Частота : 48,0 КГц
Битовая глубина : 16 бит
Метод сжатия : С потерями
Размер потока : 285 Мбайт (17%)
Язык : Russian
Default : Да
Forced : Нет
Скриншоты
Сравнение с AVI: http://screenshotcomparison.com/comparison/96110/picture:0-
Скачать

Скачать торрент!

Как скачивать? · Что такое торрент? · Рейтинг и ограничения

Сайт не распространяет и не хранит электронные версии произведений, а лишь предоставляет доступ к создаваемому пользователями каталогу ссылок на торрент-файлы, которые содержат только списки хеш-сумм

[Профиль] [ЛС]
Показать сообщения:    
Ответить на тему

Текущее время: Сегодня 02:06

Часовой пояс: GMT + 4



Вы не можете начинать темы
Вы не можете отвечать на сообщения
Вы не можете редактировать свои сообщения
Вы не можете удалять свои сообщения
Вы не можете голосовать в опросах
Вы не можете прикреплять файлы к сообщениям
Вы не можете скачивать файлы