Сибирь. Монамур (Вячеслав Росс) [2011, Драма, HDRip]

Ответить на тему
 
Автор Сообщение

user ®

Стаж: 7 лет 7 месяцев

Сообщений: 20008

Пост Пост: #1 от 17-Окт-2014 00:05

[Цитировать]

Сибирь. Монамур Жанр: Драма
Год выпуска: 2011
Продолжительность: 01:44:39
Режиссёр: Вячеслав Росс
В ролях: Петр Зайченко, Михаил Процько, Сергей Новиков, Лидия Байрашевская, Николай Козак, Максим Емельянов, Соня Росс, Сергей Пускепалис, Юрий Гумиров, Марианна Шульц
Описание: Сибирь. Поздняя осень. В тайге, в заброшенной деревне живет старик — старовер Иван и его 7-летний внук Лешка. Они ждут отца мальчика, который ушел 2 года назад и не вернулся. Стая бродячих собак пожирает все живое в окрестностях. Мальчик дружит с одной из этих собак, за это старик его часто ругает. Иногда дальний родственник дядя Юра привозит им еду.
Рип от:
Сэмпл: http://multi-up.com/1006442
Качество видео: HDRip
Формат видео: AVI
Видео: 640x272 (2.35:1), 24.000 fps, XviD build 73 ~859 kbps avg, 0.20 bit/pixel
Аудио: 48 kHz, MPEG Layer 3, 2 ch, ~128.00 kbps avg
MediaInfo
General
Complete name : D:\ТОРРЕНТ\Мои Рипы\Сибирь. Монамур\Sibir.Monamur.2011.O.HDRip.Шкипер.avi
Format : AVI
Format/Info : Audio Video Interleave
File size : 746 MiB
Duration : 1h 44mn
Overall bit rate : 997 Kbps
Writing application : VirtualDubMod 1.5.10.3 | www.virtualdub-fr.org || (build 2550/release)
Writing library : VirtualDubMod build 2550/release
Video
ID : 0
Format : MPEG-4 Visual
Format profile : Advanced Simple@L5
Format settings, BVOP : 1
Format settings, QPel : No
Format settings, GMC : No warppoints
Format settings, Matrix : Default (MPEG)
Codec ID : XVID
Codec ID/Hint : XviD
Duration : 1h 44mn
Bit rate : 860 Kbps
Width : 640 pixels
Height : 272 pixels
Display aspect ratio : 2.35:1
Frame rate : 24.000 fps
Color space : YUV
Chroma subsampling : 4:2:0
Bit depth : 8 bits
Scan type : Progressive
Compression mode : Lossy
Bits/(Pixel*Frame) : 0.206
Stream size : 644 MiB (86%)
Writing library : XviD 73
Audio
ID : 1
Format : MPEG Audio
Format version : Version 1
Format profile : Layer 3
Mode : Joint stereo
Mode extension : MS Stereo
Codec ID : 55
Codec ID/Hint : MP3
Duration : 1h 44mn
Bit rate mode : Constant
Bit rate : 128 Kbps
Channel(s) : 2 channels
Sampling rate : 48.0 KHz
Compression mode : Lossy
Stream size : 95.8 MiB (13%)
Alignment : Aligned on interleaves
Interleave, duration : 42 ms (1.00 video frame)
Interleave, preload duration : 504 ms
Writing library : LAME3.99r
Encoding settings : -m j -V 4 -q 2 -lowpass 17 -b 128
Скриншот c названием фильма Скриншоты
Скачать

Скачать торрент!

Как скачивать? · Что такое торрент? · Рейтинг и ограничения

Сайт не распространяет и не хранит электронные версии произведений, а лишь предоставляет доступ к создаваемому пользователями каталогу ссылок на торрент-файлы, которые содержат только списки хеш-сумм

[Профиль] [ЛС]
Показать сообщения:    
Ответить на тему

Текущее время: Сегодня 13:39

Часовой пояс: GMT + 4



Вы не можете начинать темы
Вы не можете отвечать на сообщения
Вы не можете редактировать свои сообщения
Вы не можете удалять свои сообщения
Вы не можете голосовать в опросах
Вы не можете прикреплять файлы к сообщениям
Вы не можете скачивать файлы