Идущий в огне / Firewalker (Дж. Ли Томпсон / J. Lee Thompson) [1986, США, боевик, приключения, комедия, BDRip 720p] 2х DVO + 2х AVO + Sub Eng + Original Eng

Ответить на тему
 
Автор Сообщение

user ®

Стаж: 7 лет 7 месяцев

Сообщений: 20008

Пост Пост: #1 от 15-Окт-2014 23:40

[Цитировать]

Идущий в огне / Firewalker
Страна: США
Студия: Cannon Group, Golan-Globus Productions
Жанр: боевик, приключения, комедия
Год выпуска: 1986
Продолжительность: 01:45:05
Перевод 1: Профессиональный (двухголосый закадровый) Paramount channel
Перевод 2: Профессиональный (двухголосый закадровый)
Перевод 3: Авторский (одноголосый закадровый) Андрей Гаврилов
Перевод 4: Авторский (одноголосый закадровый) Андрей дольский
Cубтитры: английские
Оригинальная аудиодорожка: английский
Режиссер: Дж. Ли Томпсон / J. Lee Thompson
В ролях: Чак Норрис, Луис Госсет мл., Мелоди Андерсон, Уилл Сэмпсон, Сонни Лэндэм, Джон Рис-Дэвис, Йен Эберкромби, Ричард Ли-Сун, Сайде Сильвия Гутьеррес, Альваро Карканьо
Описание: У Патриции Гудвин есть карта, которая может привести к золотому кладу ацтеков. Но в одиночку хрупкой женщине с такой миссией не справиться! Поэтому она нанимает двух дюжих авантюристов, готовых за золотые посулы пройти вместе с ней сквозь огонь и воду. Это Макс и его приятель Лео.
Троица охотников за древностями отправляется в путь, который будет полон и опасностей, и препятствий, и смешных моментов! Если их дерзкий план будет осуществлен, трое друзей вернутся домой богачами!
II Сэмпл II IMDB II
Доп. информация:
За исходник BD Remux спасибо Буковски
К дорогам исходника добавлен перевод записанный с т/к Paramount channel
Тип релиза: BDRip 720p
Контейнер: MKV
Видео: AVC 1280x688 / 16:9 / 23.976fps / Bit rate 10500Kbps / High@L4.1
Аудио 1: AC3 / 48.0KHz / 2ch. / 192kbps / rus / dvo / Paramount channel
Аудио 2: AC3 / 48.0KHz / 2ch. / 192kbps / rus / dvo
Аудио 3: AC3 / 48.0KHz / 2ch. / 192kbps / rus / avo / А. Гаврилов
Аудио 4: AC3 / 48.0KHz / 2ch. / 192kbps / rus / avo / А. Дольский
Аудио 5: DTS / 48.0KHz / 6ch / 768Kbps / original eng
Формат субтитров: softsub (SRT)
MediaInfo
Общее
Уникальный идентификатор : 174929484728860798279313527139753809305 (0x839A317AC4D4934CBAB51264C1345599)
Полное имя : E:\torrent\Firewalker.1986.BDRip.720p.mkv
Формат : Matroska
Версия формата : Version 4 / Version 2
Размер файла : 8,84 Гбайт
Продолжительность : 1 ч. 45 м.
Общий поток : 12,0 Мбит/сек
Дата кодирования : UTC 2014-10-14 01:52:32
Программа кодирования : mkvmerge v7.2.0 ('On Every Street') 64bit built on Sep 13 2014 15:52:10
Библиотека кодирования : libebml v1.3.0 + libmatroska v1.4.1
DURATION : 01:41:30.879000000
NUMBER_OF_FRAMES : 1022
NUMBER_OF_BYTES : 31822
_STATISTICS_WRITING_APP : mkvmerge v7.2.0 ('On Every Street') 64bit built on Sep 13 2014 15:52:10
_STATISTICS_WRITING_DATE_UTC : 2014-10-14 01:52:32
_STATISTICS_TAGS : BPS DURATION NUMBER_OF_FRAMES NUMBER_OF_BYTES
Видео
Идентификатор : 1
Формат : AVC
Формат/Информация : Advanced Video Codec
Профиль формата : High@L4.1
Параметр CABAC формата : Да
Параметр ReFrames формата : 9 кадров
Идентификатор кодека : V_MPEG4/ISO/AVC
Продолжительность : 1 ч. 45 м.
Битрейт : 10,5 Мбит/сек
Ширина : 1280 пикселей
Высота : 688 пикселей
Соотношение сторон : 1,85:1
Режим частоты кадров : Постоянный
Частота кадров : 23,976 кадра/сек
Цветовое пространство : YUV
Субдискретизация насыщенности : 4:2:0
Битовая глубина : 8 бит
Тип развёртки : Прогрессивная
Бит/(Пиксели*Кадры) : 0.497
Размер потока : 7,53 Гбайт (85%)
Заголовок : Firewalker.1986.BDRip.720p
Библиотека кодирования : x264 core 133 r2334 a3ac64b
Настройки программы : cabac=1 / ref=9 / deblock=1:-1:-1 / analyse=0x3:0x133 / me=umh / subme=11 / psy=1 / psy_rd=1.00:0.10 / mixed_ref=1 / me_range=48 / chroma_me=1 / trellis=2 / 8x8dct=1 / cqm=0 / deadzone=21,11 / fast_pskip=0 / chroma_qp_offset=-3 / threads=12 / lookahead_threads=2 / sliced_threads=0 / nr=0 / decimate=1 / interlaced=0 / bluray_compat=0 / constrained_intra=0 / bframes=8 / b_pyramid=2 / b_adapt=2 / b_bias=0 / direct=3 / weightb=1 / open_gop=0 / weightp=2 / keyint=250 / keyint_min=23 / scenecut=40 / intra_refresh=0 / rc_lookahead=50 / rc=2pass / mbtree=1 / bitrate=10500 / ratetol=1.0 / qcomp=0.60 / qpmin=0 / qpmax=69 / qpstep=4 / cplxblur=20.0 / qblur=0.5 / vbv_maxrate=50000 / vbv_bufsize=62500 / nal_hrd=none / ip_ratio=1.40 / aq=1:1.00
Default : Да
Forced : Нет
DURATION : 01:45:05.883000000
NUMBER_OF_FRAMES : 151190
NUMBER_OF_BYTES : 8276081903
_STATISTICS_WRITING_APP : mkvmerge v7.2.0 ('On Every Street') 64bit built on Sep 13 2014 15:52:10
_STATISTICS_WRITING_DATE_UTC : 2014-10-14 01:52:32
_STATISTICS_TAGS : BPS DURATION NUMBER_OF_FRAMES NUMBER_OF_BYTES
Аудио #1
Идентификатор : 2
Формат : AC-3
Формат/Информация : Audio Coding 3
Расширение режима : CM (complete main)
Параметр Endianness формата : Big
Идентификатор кодека : A_AC3
Продолжительность : 1 ч. 45 м.
Вид битрейта : Постоянный
Битрейт : 192 Кбит/сек
Каналы : 2 канала
Расположение каналов : Front: L R
Частота : 48,0 КГц
Битовая глубина : 16 бит
Метод сжатия : С потерями
Размер потока : 144 Мбайт (2%)
Заголовок : rus / dvo / Paramount channel / AC3 / 48Khz / 2ch / 192Kbps
Язык : Russian
Default : Да
Forced : Нет
Аудио #2
Идентификатор : 3
Формат : AC-3
Формат/Информация : Audio Coding 3
Расширение режима : CM (complete main)
Параметр Endianness формата : Big
Идентификатор кодека : A_AC3
Продолжительность : 1 ч. 45 м.
Вид битрейта : Постоянный
Битрейт : 192 Кбит/сек
Каналы : 2 канала
Расположение каналов : Front: L R
Частота : 48,0 КГц
Битовая глубина : 16 бит
Метод сжатия : С потерями
Размер потока : 144 Мбайт (2%)
Заголовок : rus / dvo / AC3 / 48Khz / 2ch / 192Kbps
Язык : Russian
Default : Нет
Forced : Нет
Аудио #3
Идентификатор : 4
Формат : AC-3
Формат/Информация : Audio Coding 3
Расширение режима : CM (complete main)
Параметр Endianness формата : Big
Идентификатор кодека : A_AC3
Продолжительность : 1 ч. 45 м.
Вид битрейта : Постоянный
Битрейт : 192 Кбит/сек
Каналы : 2 канала
Расположение каналов : Front: L R
Частота : 48,0 КГц
Битовая глубина : 16 бит
Метод сжатия : С потерями
Размер потока : 144 Мбайт (2%)
Заголовок : rus / avo / Gavrilov / AC3 / 48Khz / 2ch / 192Kbps
Язык : Russian
Default : Нет
Forced : Нет
Аудио #4
Идентификатор : 5
Формат : AC-3
Формат/Информация : Audio Coding 3
Расширение режима : CM (complete main)
Параметр Endianness формата : Big
Идентификатор кодека : A_AC3
Продолжительность : 1 ч. 45 м.
Вид битрейта : Постоянный
Битрейт : 192 Кбит/сек
Каналы : 2 канала
Расположение каналов : Front: L R
Частота : 48,0 КГц
Битовая глубина : 16 бит
Метод сжатия : С потерями
Размер потока : 144 Мбайт (2%)
Заголовок : rus / avo / Dolsky / AC3 / 48Khz / 2ch / 192Kbps
Язык : Russian
Default : Нет
Forced : Нет
Аудио #5
Идентификатор : 6
Формат : DTS
Формат/Информация : Digital Theater Systems
Режим : 16
Параметр Endianness формата : Big
Идентификатор кодека : A_DTS
Продолжительность : 1 ч. 45 м.
Вид битрейта : Постоянный
Битрейт : 768 Кбит/сек
Каналы : 6 каналов
Расположение каналов : Front: L C R, Side: L R, LFE
Частота : 48,0 КГц
Битовая глубина : 16 бит
Метод сжатия : С потерями
Размер потока : 577 Мбайт (6%)
Заголовок : original eng / DTS / 48KHz / 6ch / 755Kbps
Язык : English
Default : Нет
Forced : Нет
Текст
Идентификатор : 7
Формат : UTF-8
Идентификатор кодека : S_TEXT/UTF8
Идентификатор кодека/Информация : UTF-8 Plain Text
Заголовок : subtitle eng
Язык : English
Default : Нет
Forced : Нет
x264 info
x264 info
x264 [info]: using SAR=1/1
x264 [info]: using cpu capabilities: MMX2 SSE2Fast SSSE3 SSE4.2 AVX
x264 [info]: profile High, level 4.1
x264 [info]: frame I:1344 Avg QP:13.31 size:162560
x264 [info]: frame P:33088 Avg QP:15.71 size: 83360
x264 [info]: frame B:116758 Avg QP:17.84 size: 45388
x264 [info]: consecutive B-frames: 2.0% 3.1% 6.3% 27.1% 12.4% 38.0% 7.6% 2.7% 0.7%
x264 [info]: mb I I16..4: 3.7% 79.1% 17.2%
x264 [info]: mb P I16..4: 0.3% 48.2% 2.9% P16..4: 13.8% 19.4% 12.0% 2.9% 0.4% skip: 0.2%
x264 [info]: mb B I16..4: 0.0% 13.0% 0.3% B16..8: 29.8% 26.2% 7.0% direct:17.3% skip: 6.5% L0:38.9% L1:37.2% BI:23.9%
x264 [info]: 8x8 transform intra:94.8% inter:54.3%
x264 [info]: direct mvs spatial:97.7% temporal:2.3%
x264 [info]: coded y,uvDC,uvAC intra: 99.2% 92.0% 71.3% inter: 72.4% 45.8% 8.3%
x264 [info]: i16 v,h,dc,p: 10% 6% 19% 65%
x264 [info]: i8 v,h,dc,ddl,ddr,vr,hd,vl,hu: 12% 10% 15% 8% 10% 11% 9% 12% 14%
x264 [info]: i4 v,h,dc,ddl,ddr,vr,hd,vl,hu: 10% 8% 4% 9% 15% 16% 13% 12% 13%
x264 [info]: i8c dc,h,v,p: 45% 25% 18% 12%
x264 [info]: Weighted P-Frames: Y:6.4% UV:1.5%
x264 [info]: ref P L0: 39.3% 12.5% 16.9% 7.9% 6.8% 5.1% 4.7% 3.1% 3.1% 0.5% 0.0%
x264 [info]: ref B L0: 82.3% 8.1% 3.7% 2.0% 1.6% 1.3% 0.7% 0.3%
x264 [info]: ref B L1: 95.1% 4.9%
x264 [info]: kb/s:10499.51
x264 [total]: encoded 151190 frames, 6.48 fps, 10499.51 kb/s
Скриншоты Сравнение с исходником
Скачать

Скачать торрент!

Как скачивать? · Что такое торрент? · Рейтинг и ограничения

Сайт не распространяет и не хранит электронные версии произведений, а лишь предоставляет доступ к создаваемому пользователями каталогу ссылок на торрент-файлы, которые содержат только списки хеш-сумм

[Профиль] [ЛС]
Показать сообщения:    
Ответить на тему

Текущее время: Сегодня 06:29

Часовой пояс: GMT + 4



Вы не можете начинать темы
Вы не можете отвечать на сообщения
Вы не можете редактировать свои сообщения
Вы не можете удалять свои сообщения
Вы не можете голосовать в опросах
Вы не можете прикреплять файлы к сообщениям
Вы не можете скачивать файлы