Ещё (Дмитрий Лавриненко) [2014, документальный, WEB-DLRip]

Ответить на тему
 
Автор Сообщение

user ®

Стаж: 7 лет 7 месяцев

Сообщений: 20008

Пост Пост: #1 от 15-Окт-2014 23:40

[Цитировать]

Ещё
Жанр: документальный
Год выпуска: 2014
Продолжительность: 01:36:04
Режиссёр: Дмитрий Лавриненко
В ролях: Леонид Фёдоров, Олег Гаркуша, Дмитрий Озерский, Владимир Волков, Николай Рубанов, Михаил Коловский, Юрий Парфенов, Виктор Бондарик, Борис Шавейников, Кирилл Миллер
Описание: Фильм Дмитрия Лавриненко «Еще» – полнометражная документальная картина, посвященная рок-группе «АукцЫон». Коллектив, который Леонид Федоров основал в 1978 году, на протяжении нескольких лет своего существования неоднократно менял название, а «АукцЫоном» стал называться с 1983 года, после принятия группы в Ленинградский рок-клуб.
Фильм не следует хронологическим канонам, здесь нет большого числа архивных кадров, равно как множества «говорящих голов». Режиссер проекта фокусируется на том, в чем «АукцЫон» всегда был примером для соратников по творчеству – на процессе создания ими музыки, и заглядывает в студию и гримерку к музыкантам, а также интересуется их повседневной жизнью.
Картина «Еще» снималась семь лет. Прокатчики позиционируют его как первое за последние 35 лет полнометражное кино об отечественной рок-музыке после фильма Алексея Учителя «Рок», снятого еще в советские времена. «Еще» закрывал фестиваль нового документального кино о музыке Beat Film Festival и получил премию «Степнои? волк 2014» в номинации «Фильм».
Сэмпл: http://multi-up.com/1006360
Качество видео: WEB-DLRip
Формат видео: AVI
Видео: DivX, 720х400, 1724 кбит/с, 24 fps
Аудио: AC3, 448 кбит/с, 6 ch, 48 КГц
MediaInfo
Общее
Полное имя : E:\Eshe.avi
Формат : AVI
Формат/Информация : Audio Video Interleave
Размер файла : 1,46 Гбайт
Продолжительность : 1 ч. 36 м.
Общий поток : 2181 Кбит/сек
Программа кодирования : VirtualDubMod 1.5.10.3 | www.virtualdub-fr.org || (build 2550/release)
Библиотека кодирования : VirtualDubMod build 2550/release
Видео
Идентификатор : 0
Формат : MPEG-4 Visual
Профиль формата : Advanced Simple@L5
Параметр BVOP формата : 1
Параметр QPel формата : Нет
Параметр GMC формата : Без точки перехода
Параметр матрицы формата : Default (MPEG)
Идентификатор кодека : DX50
Идентификатор кодека/Подсказка : DivX 5
Продолжительность : 1 ч. 36 м.
Битрейт : 1724 Кбит/сек
Ширина : 720 пикселей
Высота : 400 пикселей
Соотношение сторон : 16:9
Частота кадров : 24,000 кадра/сек
Цветовое пространство : YUV
Субдискретизация насыщенности : 4:2:0
Битовая глубина : 8 бит
Тип развёртки : Прогрессивная
Метод сжатия : С потерями
Бит/(Пиксели*Кадры) : 0.249
Размер потока : 1,16 Гбайт (79%)
Библиотека кодирования : XviD 1.2.1 (UTC 2008-12-04)
Аудио
Идентификатор : 1
Формат : AC-3
Формат/Информация : Audio Coding 3
Расширение режима : CM (complete main)
Параметр Endianness формата : Big
Идентификатор кодека : 2000
Продолжительность : 1 ч. 36 м.
Вид битрейта : Постоянный
Битрейт : 448 Кбит/сек
Каналы : 6 каналов
Расположение каналов : Front: L C R, Side: L R, LFE
Частота : 48,0 КГц
Битовая глубина : 16 бит
Метод сжатия : С потерями
Размер потока : 308 Мбайт (21%)
Выравнивание : Разделение по промежуткам
Продолжительность промежутка : 42 мс. (1,00 видеокадр)
Время предзагрузки промежутка : 500 мс.
Скриншот c названием фильма Скриншоты
Скачать

Скачать торрент!

Как скачивать? · Что такое торрент? · Рейтинг и ограничения

Сайт не распространяет и не хранит электронные версии произведений, а лишь предоставляет доступ к создаваемому пользователями каталогу ссылок на торрент-файлы, которые содержат только списки хеш-сумм

[Профиль] [ЛС]
Показать сообщения:    
Ответить на тему

Текущее время: Сегодня 07:59

Часовой пояс: GMT + 4



Вы не можете начинать темы
Вы не можете отвечать на сообщения
Вы не можете редактировать свои сообщения
Вы не можете удалять свои сообщения
Вы не можете голосовать в опросах
Вы не можете прикреплять файлы к сообщениям
Вы не можете скачивать файлы