Обыкновенное сердце / The Normal Heart (Райан Мерфи / Ryan Murphy) [2014, США, Драма, HDRip] MVO (Amedia)

Ответить на тему
 
Автор Сообщение

user ®

Стаж: 7 лет 7 месяцев

Сообщений: 20008

Пост Пост: #1 от 15-Окт-2014 20:30

[Цитировать]

Обыкновенное сердце / The Normal Heart

Год выпуска: 2014
Страна: США
Жанр: Драма
Продолжительность: 02:12:35
Перевод: Профессиональный (многоголосый, закадровый) [Amedia]
Cубтитры: нет
Режиссер: Райан Мерфи / Ryan Murphy
В ролях: Тейлор Китч, Джонатан Грофф, Мэтт Бомер, Джулия Робертс, Марк Руффало, Джим Парсонс, Дэнис О’Хэйр, Джо Засо, Финн Уиттрок, Реми Обержене
Описание: Во дворе классические 80-ые годы. Создатели фильма забрасывают зрителя в центр Нью-Йорка, где случаются фатальные события. Множество мужчин, которые с рождения имеют нетрадиционную сексуальную ориентацию, погибают от страшного нашествия ВИЧ, который со временем прогрессирует в СПИД. Нэд Уинкс – писатель с европейскими корнями, и по совместительству активист Гей-шествий. Чтобы раскрыть секрет загадочных смертей, Нэд вынужден обратиться к своей старой знакомой Эмме Брукнер.. У неё также много своих проблем, и она пожизненно прикована к инвалидной коляске из-за болезни полиомиелитом. В городе она пользуется небывалым авторитетом и по праву считается лучшим врачом в области ВИЧ-заболеваний. Но Эмма не в состоянии чем-то помочь, ведь даже она не знает, из-за чего была вызвана эпидемия.
Автор: Scarabey
Качество видео: HDRip (исходник BDRip 720p)
Формат видео: AVI
Видео: 688x384 (1.79:1), 23.976 fps, XviD build 73 ~1954 kbps avg, 0.31 bit/pixel
Аудио: 48 kHz, AC3 Dolby Digital, 3/2 (L,C,R,l,r) + LFE ch, ~384.00 kbps avg

Сэмпл MediaInfo
Общее
Полное имя : D:\Фильмы\The.Normal.Heart.2014_Am_HDRip___[Scarabey].avi
Формат : AVI
Формат/Информация : Audio Video Interleave
Профиль формата : OpenDML
Размер файла : 2,17 Гбайт
Продолжительность : 2 ч. 12 м.
Общий поток : 2346 Кбит/сек
Программа кодирования : VirtualDubMod 1.5.10.3 | www.virtualdub-fr.org || (build 2550/release)
Библиотека кодирования : VirtualDubMod build 2550/release
Видео
Идентификатор : 0
Формат : MPEG-4 Visual
Профиль формата : Advanced Simple@L5
Параметр BVOP формата : 1
Параметр QPel формата : Нет
Параметр GMC формата : Без точки перехода
Параметр матрицы формата : Выборочная
Идентификатор кодека : XVID
Идентификатор кодека/Подсказка : XviD
Продолжительность : 2 ч. 12 м.
Битрейт : 1950 Кбит/сек
Ширина : 688 пикселей
Высота : 384 пикселя
Соотношение сторон : 16:9
Частота кадров : 23,976 кадра/сек
Цветовое пространство : YUV
Субдискретизация насыщенности : 4:2:0
Битовая глубина : 8 бит
Тип развёртки : Прогрессивная
Метод сжатия : С потерями
Бит/(Пиксели*Кадры) : 0.308
Размер потока : 1,81 Гбайт (83%)
Библиотека кодирования : XviD 73
Аудио
Идентификатор : 1
Формат : AC-3
Формат/Информация : Audio Coding 3
Расширение режима : CM (complete main)
Параметр Endianness формата : Big
Идентификатор кодека : 2000
Продолжительность : 2 ч. 12 м.
Вид битрейта : Постоянный
Битрейт : 384 Кбит/сек
Каналы : 6 каналов
Расположение каналов : Front: L C R, Side: L R, LFE
Частота : 48,0 КГц
Битовая глубина : 16 бит
Метод сжатия : С потерями
Размер потока : 364 Мбайт (16%)
Выравнивание : Разделение по промежуткам
Продолжительность промежутка : 42 мс. (1,00 видеокадр)
Время предзагрузки промежутка : 500 мс.
Скриншот с названием фильма Скриншоты
Скачать

Скачать торрент!

Как скачивать? · Что такое торрент? · Рейтинг и ограничения

Сайт не распространяет и не хранит электронные версии произведений, а лишь предоставляет доступ к создаваемому пользователями каталогу ссылок на торрент-файлы, которые содержат только списки хеш-сумм

[Профиль] [ЛС]
Показать сообщения:    
Ответить на тему

Текущее время: Сегодня 20:10

Часовой пояс: GMT + 4



Вы не можете начинать темы
Вы не можете отвечать на сообщения
Вы не можете редактировать свои сообщения
Вы не можете удалять свои сообщения
Вы не можете голосовать в опросах
Вы не можете прикреплять файлы к сообщениям
Вы не можете скачивать файлы