Лаборатория Декстера. Путешествие в свое будущее / Лаборатория Декстера: Загляни в свое будущее / Dexter\'s Laboratory: Ego Trip (Генндий Тартаковский / Genndy Tartakovsky) [1999, Анимация, VHSRip] Dub

Ответить на тему
 
Автор Сообщение

user ®

Стаж: 11 лет

Сообщений: 15145

Пост Пост: #1 от 15-Окт-2014 17:20

[Цитировать]

Лаборатория Декстера. Путешествие в свое будущее / Лаборатория Декстера: Загляни в свое бу / Dexter's Laboratory: Ego Trip
Страна: США
Жанр: Анимация
Продолжительность: 00:48:17
Год выпуска: 1999
Перевод: Профессиональный (дублированный)
Русские субтитры: нет
Режиссёр: Генндий Тартаковский / Genndy Tartakovsky
Роли озвучивали: Рабочая группа озвучивания:
Фильм дублирован на студии "Мост Видео"
Автор синхронного текста и режиссер: Валентина Кузнецова
Звукооператор: Леонид Чечиков
Перевод: Ирина Добровольская
Директор: Людмила Бронникова
Роли дублировали: Ольга Кузнецова, Алексей Золотницкий, Дмитрий Филлимонов
Описание: Юный вундеркинд Декстер дни и ночи проводит в своей лаборатории. Гениальные изобретения выходят из его рук, словно пирожки. Однако, это вызывает не только восхищение окружающих, но и черную зависть одноклассника - двоечника, который спит и видит, как украсть то или иное творение Декстера и приписать авторство себе! Декстер начинает серьезно беспокоится о том, во что все это выльется в будущем. И вот, с помощью машины времени, он отправляется в длительное путешествие в будущее, неоднократно встречая там...себя самого! Удастся ли всем Декстерам из разных периодов времени исправить в будущем ошибки прошлого?
Доп. информация: http://www.imdb.com/title/tt0293092/?ref_=fn_al_tt_1
Оцифровка VHS (личный архив) и получение VHSRip alenavova
Эксклюзив для ***. При размещении данного релиза на других сайтах ссылка на автора alenavova обязательна.

Релиз
Семпл: https://yadi.sk/i/N83BTwNKc2wp7
Качество: VHSRip
Формат: AVI
Видео: 640x480 (1.33:1), 25 fps, XviD build 50 ~1999 kbps avg, 0.26 bit/pixel
Аудио: 48 kHz, AC3 Dolby Digital, 2/0 (L,R) ch, ~192 kbps
Субтитры: отсутствуют
Подробные технические данные
Лаборатория Декстера. Путешествие в свое будущее - Dexter's Laboratory. Ego Trip [by alenavova] .aviFormat : AVIFormat/Info : Audio Video InterleaveFile size : 760 MiBDuration : 48mn 17sOverall bit rate : 2 202 KbpsMovie name : Лаборатория Декстера. Путешествие в свое будущее - Dexter's Laboratory. Ego Trip [by alenavova]Director : by alenavovaWriting application : VirtualDubMod 1.5.10.3 | www.virtualdub-fr.org || (build 2550/release)Copyright : Edich2Comment : ***
VideoID : 0Format : MPEG-4 VisualFormat profile : Advanced Simple@L5Format settings, BVOP : 2Format settings, QPel : NoFormat settings, GMC : No warppointsFormat settings, Matrix : CustomCodec ID : XVIDCodec ID/Hint : XviDDuration : 48mn 17sBit rate : 2 000 KbpsWidth : 640 pixelsHeight : 480 pixelsDisplay aspect ratio : 4:3Frame rate : 25.000 fpsColor space : YUVChroma subsampling : 4:2:0Bit depth : 8 bitsScan type : ProgressiveCompression mode : LossyBits/(Pixel*Frame) : 0.260Stream size : 691 MiB (91%)Writing library : XviD 1.2.1 (UTC 2008-12-04)
AudioID : 1Format : AC-3Format/Info : Audio Coding 3Mode extension : CM (complete main)Format settings, Endianness : BigCodec ID : 2000Duration : 48mn 17sBit rate mode : ConstantBit rate : 192 KbpsChannel(s) : 2 channelsChannel positions : Front: L RSampling rate : 48.0 KHzBit depth : 16 bitsCompression mode : LossyStream size : 66.3 MiB (9%)Alignment : Split accross interleavesInterleave, duration : 40 ms (1.00 video frame)Interleave, preload duration : 500 ms
Скриншоты
Скачать

Скачать торрент! Лаборатория Декстера. Путешествие в свое будущее / Лаборатория Декстера: Загляни в свое будущее / Dexter\'s Laboratory: Ego Trip (Генндий Тартаковский / Genndy Tartakovsky) [1999, Анимация, VHSRip] Dub

Как скачивать? · Что такое торрент? · Рейтинг и ограничения

Сайт не распространяет и не хранит электронные версии произведений, а лишь предоставляет доступ к создаваемому пользователями каталогу ссылок на торрент-файлы, которые содержат только списки хеш-сумм

[Профиль] [ЛС]
Показать сообщения:    
Ответить на тему

Текущее время: Сегодня 18:47

Часовой пояс: GMT + 4



Вы не можете начинать темы
Вы не можете отвечать на сообщения
Вы не можете редактировать свои сообщения
Вы не можете удалять свои сообщения
Вы не можете голосовать в опросах
Вы не можете прикреплять файлы к сообщениям
Вы не можете скачивать файлы