Судная ночь 2 / The Purge: Anarchy (Джеймс ДеМонако / James DeMonaco) [2014 г., США, Франция, триллер, криминал, боевик, BDRip-AVC] Dub (iTunes) + Original Eng + Sub (Eng)

Ответить на тему
 
Автор Сообщение

user ®

Стаж: 7 лет 7 месяцев

Сообщений: 20008

Пост Пост: #1 от 15-Окт-2014 17:20

[Цитировать]

-Судная ночь 2 / The Purge: Anarchy«Добро пожаловать в идеальное будущее, где одну ночь в году все преступления легальны» Страна: США, Франция
Студия: Blumhouse Productions, Platinum Dunes, Universal Pictures, Why Not Productions
Жанр: Триллер, криминал, боевик
Год выпуска: 2014
Продолжительность: 01:43:34-Перевод: Профессиональный (полное дублирование), iTunes Russia
Оригинальная аудиодорожка: английский
Cубтитры: английские
Режиссер: Джеймс ДеМонако / James DeMonaco
В ролях: Фрэнк Грилло, Кармен Эджого, Зак Гилфорд, Киле Санчес, Майкл К. Уильямс, Зои Борд, Жустина Мачадо, Джон Бизли, Джек Конли, Ноэль Гульеми
Описание: Добро пожаловать в идеальный мир будущего, мир без преступности и войн. И только один раз в году роскошная спокойная жизнь сменяется анархией. Этой ночью дозволено все: во тьме улиц одни жаждут мести, другие ищут развлечений, остальные пытаются дожить до рассвета...-
Сэмпл: скачать-Автор рипа: Elheym
Качество: BDRip-AVC (источник: / Blu-ray Remux [THE_PURGE_ANARCHY_REMUX_HDCLUB] / 1080p)
Контейнер: MKV
Видео: 1152x480 (2.40:1), 23.976 fps, MPEG-4 AVC, ~3389 kbps avg, 0.256 bit/pixel
Аудио #1: Русский: AC3, 5.1, 48 kHz, ~384 Кбит/с | Профессиональный (полное дублирование), iTunes Russia |
Аудио #2: Английский: AC3, 5.1, 48 kHz, ~448 Кбит/с | Оригинал |
Субтитры: Английские (полные, полные SDH)
Главы: Присутствуют, сохранены оригинальные
MediaInfo
Уникальный идентификатор : 254686567613758296874267050098590748273 (0xBF9AD9446820B01CA2D000BB3A240E71)
Полное имя : The Purge.Anarchy.2014.DUAL.BDRip-AVC.x264.AC3.mkv
Формат : Matroska
Версия формата : Version 2
Размер файла : 3,12 Гбайт
Продолжительность : 1 ч. 43 м.
Общий поток : 4307 Кбит/сек
Дата кодирования : UTC 2014-10-14 16:10:11
Программа кодирования : mkvmerge v5.2.0 ('I can't explain') built on Dec 18 2011 18:12:03
Библиотека кодирования : libebml v1.2.3 + libmatroska v1.3.0
Видео
Идентификатор : 1
Формат : AVC
Формат/Информация : Advanced Video Codec
Профиль формата : High@L4.1
Параметр CABAC формата : Да
Параметр ReFrames формата : 14 кадров
Идентификатор кодека : V_MPEG4/ISO/AVC
Продолжительность : 1 ч. 43 м.
Битрейт : 3389 Кбит/сек
Ширина : 1152 пикселя
Высота : 480 пикселей
Соотношение сторон : 2,40:1
Режим частоты кадров : Постоянный
Частота кадров : 23,976 кадра/сек
Цветовое пространство : YUV
Субдискретизация насыщенности : 4:2:0
Битовая глубина : 8 бит
Тип развёртки : Прогрессивная
Бит/(Пиксели*Кадры) : 0.256
Размер потока : 2,45 Гбайт (79%)
Заголовок : Судная ночь 2 / The Purge: Anarchy (2014) by Elheym
Библиотека кодирования : x264 core 142 r2479kMod dd79a61
Настройки программы : cabac=1 / ref=14 / deblock=1:-3:-2 / analyse=0x3:0x113 / me=umh / subme=11 / psy=1 / fade_compensate=0.00 / psy_rd=1.06:0.00 / mixed_ref=1 / me_range=32 / chroma_me=1 / trellis=2 / 8x8dct=1 / cqm=0 / deadzone=21,11 / fast_pskip=0 / chroma_qp_offset=-4 / threads=6 / lookahead_threads=1 / sliced_threads=0 / nr=0 / decimate=1 / interlaced=0 / bluray_compat=0 / constrained_intra=0 / fgo=0 / bframes=11 / b_pyramid=2 / b_adapt=2 / b_bias=0 / direct=1 / weightb=1 / open_gop=0 / weightp=2 / keyint=230 / keyint_min=23 / scenecut=40 / intra_refresh=0 / rc_lookahead=40 / rc=crf / mbtree=1 / crf=17.6000 / qcomp=0.70 / qpmin=0 / qpmax=69 / qpstep=4 / vbv_maxrate=50000 / vbv_bufsize=62500 / crf_max=0.0 / nal_hrd=none / filler=0 / ip_ratio=1.40 / aq=1:0.90
Язык : English
Default : Да
Forced : Нет
Аудио #1
Идентификатор : 2
Формат : AC-3
Формат/Информация : Audio Coding 3
Расширение режима : CM (complete main)
Параметр Endianness формата : Big
Идентификатор кодека : A_AC3
Продолжительность : 1 ч. 43 м.
Вид битрейта : Постоянный
Битрейт : 384 Кбит/сек
Каналы : 6 каналов
Расположение каналов : Front: L C R, Side: L R, LFE
Частота : 48,0 КГц
Битовая глубина : 16 бит
Метод сжатия : С потерями
Размер потока : 284 Мбайт (9%)
Заголовок : АС3 5.1 @ 384 kbps - Dub, iTunes
Язык : Russian
Default : Нет
Forced : Нет
Аудио #2
Идентификатор : 3
Формат : AC-3
Формат/Информация : Audio Coding 3
Расширение режима : CM (complete main)
Параметр Endianness формата : Big
Идентификатор кодека : A_AC3
Продолжительность : 1 ч. 43 м.
Вид битрейта : Постоянный
Битрейт : 448 Кбит/сек
Каналы : 6 каналов
Расположение каналов : Front: L C R, Side: L R, LFE
Частота : 48,0 КГц
Битовая глубина : 16 бит
Метод сжатия : С потерями
Размер потока : 332 Мбайт (10%)
Заголовок : АС3 5.1 @ 448 kbps - Original
Язык : English
Default : Нет
Forced : Нет
Текст #1
Идентификатор : 4
Формат : UTF-8
Идентификатор кодека : S_TEXT/UTF8
Идентификатор кодека/Информация : UTF-8 Plain Text
Заголовок : Full
Язык : English
Default : Нет
Forced : Нет
Текст #2
Идентификатор : 5
Формат : UTF-8
Идентификатор кодека : S_TEXT/UTF8
Идентификатор кодека/Информация : UTF-8 Plain Text
Заголовок : Full SDH
Язык : English
Default : Нет
Forced : Нет
Меню
00:00:00.000 : :Chapter 01
00:05:14.521 : :Chapter 02
00:09:49.838 : :Chapter 03
00:14:37.293 : :Chapter 04
00:18:32.944 : :Chapter 05
00:23:17.229 : :Chapter 06
00:31:21.796 : :Chapter 07
00:36:28.935 : :Chapter 08
00:41:18.559 : :Chapter 09
00:47:13.831 : :Chapter 10
00:51:38.761 : :Chapter 11
00:57:27.943 : :Chapter 12
01:01:48.662 : :Chapter 13
01:06:49.213 : :Chapter 14
01:10:11.916 : :Chapter 15
01:15:45.747 : :Chapter 16
01:21:14.493 : :Chapter 17
01:26:41.154 : :Chapter 18
01:31:17.970 : :Chapter 19
01:36:47.051 : :Chapter 20
01:43:34.498 : :Chapter 21
x264 log
x264 [info]: frame I:1112 Avg QP:13.84 size: 91640
x264 [info]: frame P:32168 Avg QP:17.69 size: 27089
x264 [info]: frame B:115725 Avg QP:19.22 size: 14904
x264 [info]: consecutive B-frames: 1.9% 2.1% 12.3% 13.8% 17.2% 43.0% 4.8% 1.1% 1.3% 0.8% 1.0% 0.6%
x264 [info]: ref P L0: 44.2% 6.7% 18.5% 8.1% 5.5% 4.0% 3.4% 1.9% 1.7% 1.4% 1.3% 1.1% 1.1% 1.0% 0.2% 0.0%
x264 [info]: ref B L0: 68.5% 13.0% 6.4% 3.5% 2.2% 1.7% 1.4% 0.9% 0.7% 0.6% 0.6% 0.4% 0.1%
x264 [info]: ref B L1: 90.9% 9.1%
Скриншоты
Скачать

Скачать торрент!

Как скачивать? · Что такое торрент? · Рейтинг и ограничения

Сайт не распространяет и не хранит электронные версии произведений, а лишь предоставляет доступ к создаваемому пользователями каталогу ссылок на торрент-файлы, которые содержат только списки хеш-сумм

[Профиль] [ЛС]
Показать сообщения:    
Ответить на тему

Текущее время: Сегодня 15:31

Часовой пояс: GMT + 4



Вы не можете начинать темы
Вы не можете отвечать на сообщения
Вы не можете редактировать свои сообщения
Вы не можете удалять свои сообщения
Вы не можете голосовать в опросах
Вы не можете прикреплять файлы к сообщениям
Вы не можете скачивать файлы