Секс на две ночи / Two Night Stand (Макс Николс / Max Nichols) [2014, США, Романтическая молодежная мелодрама, HDRip] VO (qwerty)

Ответить на тему
 
Автор Сообщение

user ®

Стаж: 7 лет 7 месяцев

Сообщений: 20008

Пост Пост: #1 от 15-Окт-2014 17:20

[Цитировать]

Секс на две ночи / Two Night Stand
Страна: США
Жанр: Романтическая молодежная мелодрама
Год выпуска: 2014
Продолжительность: 01:26:13
Перевод: Одноголосый закадровый qwerty
Cубтитры: нет
Оригинальная аудиодорожка: нет
Режиссер: Макс Николс / Max Nichols
В ролях: Анали Типтон, Майлз Теллер, Джессика Зор, Скотт Мескади, Джош Салатин, Келлин Линдсэй, Майкл Шоуолтер, Ливэн Рамбин, Джои Лорен Эдамс
Описание: Девушка застряла дома у парня на целый день из-за ужасного снежного шторма. Благодаря этому несчастному случаю молодые люди получают возможность познакомиться поближе
Сэмпл: http://multi-up.com/1006227
Качество видео: HDRip
Формат видео: AVI
Видео: Xvid 688*288 2.4^1 23,976 кадра/сек 924 Кбит/сек 0.195
Аудио: MPEG Layer 3 MP3 192 Кбит/сек 2 канала 44,1 КГц
MediaInfo
Формат : AVI
Формат/Информация : Audio Video Interleave
Размер файла : 694 Мбайт
Продолжительность : 1 ч. 26 м.
Общий поток : 1125 Кбит/сек
Программа кодирования : VirtualDubMod 1.5.10.2 (build 2540/release)
Библиотека кодирования : VirtualDubMod build 2540/release
Видео
Идентификатор : 0
Формат : xvid
Идентификатор кодека : xvid
Продолжительность : 1 ч. 26 м.
Битрейт : 924 Кбит/сек
Ширина : 688 пикселей
Высота : 288 пикселей
Соотношение сторон : 2,40:1
Частота кадров : 23,976 кадра/сек
Бит/(Пиксели*Кадры) : 0.195
Размер потока : 570 Мбайт (82%)
Аудио
Идентификатор : 1
Формат : MPEG Audio
Версия формата : Version 1
Профиль формата : Layer 3
Режим : Joint stereo
Расширение режима : MS Stereo
Идентификатор кодека : 55
Идентификатор кодека/Подсказка : MP3
Продолжительность : 1 ч. 26 м.
Вид битрейта : Постоянный
Битрейт : 192 Кбит/сек
Каналы : 2 канала
Частота : 44,1 КГц
Метод сжатия : С потерями
Размер потока : 118 Мбайт (17%)
Выравнивание : Соединение по промежуткам
Продолжительность промежутка : 42 мс. (1,00 видеокадр)
Время предзагрузки промежутка : 522 мс.
Скриншот c названием фильма Скриншоты
Скачать

Скачать торрент!

Как скачивать? · Что такое торрент? · Рейтинг и ограничения

Сайт не распространяет и не хранит электронные версии произведений, а лишь предоставляет доступ к создаваемому пользователями каталогу ссылок на торрент-файлы, которые содержат только списки хеш-сумм

[Профиль] [ЛС]

lisichka

Стаж: 2 года

Сообщений: 1

Пост Пост: #2 от 25-Ноя-2014 17:54 (спустя 1 месяц 10 дней)

[Цитировать]

Вернитесь пожалуйста на раздачу)) Очень хочется посмотреть. Заранее спасибо.
[Профиль] [ЛС]
Показать сообщения:    
Ответить на тему

Текущее время: Сегодня 22:40

Часовой пояс: GMT + 4



Вы не можете начинать темы
Вы не можете отвечать на сообщения
Вы не можете редактировать свои сообщения
Вы не можете удалять свои сообщения
Вы не можете голосовать в опросах
Вы не можете прикреплять файлы к сообщениям
Вы не можете скачивать файлы