Джунгли (Александр Войтинский) [2012, мелодрама, комедия, приключения, HDRip]

Ответить на тему
 
Автор Сообщение

user ®

Стаж: 7 лет 7 месяцев

Сообщений: 20008

Пост Пост: #1 от 14-Окт-2014 21:30

[Цитировать]

Джунгли

Жанр: мелодрама, комедия, приключения
Год выпуска: 2012
Продолжительность: 01:23:27
Режиссёр: Александр Войтинский
В ролях: Сергей Светлаков, Вера Брежнева, Александр Макогон, Александр Половцев, Марина Дюжева, Михаил Ефремов, Ирина Медведева, Андрей Гаврилов
Описание: У Сергея и Марины в семейной жизни наступил кризис. Во время одной из ссор, они решают поехать в экзотическое путешествие. Всю дорогу между супругами не утихают ссоры, которые в конце концов приводят к тому, что они оказываются на необитаемом острове, затерянном в океане. Вместо того чтобы вместе бороться за выживание, наши герои продолжают выяснять отношения, постепенно переходя к настоящим боевым действиям. В довершение несчастий оказывается, что остров населен племенем воинствующих туземцев.
Качество видео: HDRip
Формат видео: AVI
Видео: 720x304 (2.37:1), 23.976 fps, XviD build 50 ~1104 kbps avg, 0.21 bit/pixel
Аудио: 48 kHz, MPEG Layer 3, 2 ch, ~128.00 kbps avg

Sample MediaInfo
Общее
Полное имя : F:\HD Video\scara\Dzhungli.2012_HDRip_[Scarabey].avi
Формат : AVI
Формат/Информация : Audio Video Interleave
Размер файла : 741 Мбайт
Продолжительность : 1 ч. 23 м.
Общий поток : 1242 Кбит/сек
Программа кодирования : VirtualDubMod 1.5.10.2 (build 2540/release)
Библиотека кодирования : VirtualDubMod build 2540/release
Видео
Идентификатор : 0
Формат : MPEG-4 Visual
Профиль формата : Advanced Simple@L5
Параметр BVOP формата : 1
Параметр QPel формата : Нет
Параметр GMC формата : Без точки перехода
Параметр матрицы формата : Выборочная
Идентификатор кодека : XVID
Идентификатор кодека/Подсказка : XviD
Продолжительность : 1 ч. 23 м.
Битрейт : 1104 Кбит/сек
Ширина : 720 пикселей
Высота : 304 пикселя
Соотношение сторон : 2,35:1
Частота кадров : 23,976 кадра/сек
Цветовое пространство : YUV
Субдискретизация насыщенности : 4:2:0
Битовая глубина : 8 бит
Тип развёртки : Прогрессивная
Метод сжатия : С потерями
Бит/(Пиксели*Кадры) : 0.210
Размер потока : 659 Мбайт (89%)
Библиотека кодирования : XviD 1.2.1 (UTC 2008-12-04)
Аудио
Идентификатор : 1
Формат : MPEG Audio
Версия формата : Version 1
Профиль формата : Layer 3
Идентификатор кодека : 55
Идентификатор кодека/Подсказка : MP3
Продолжительность : 1 ч. 23 м.
Вид битрейта : Постоянный
Битрейт : 128 Кбит/сек
Каналы : 2 канала
Частота : 48,0 КГц
Метод сжатия : С потерями
Размер потока : 76,4 Мбайт (10%)
Выравнивание : Соединение по промежуткам
Продолжительность промежутка : 42 мс. (1,00 видеокадр)
Время предзагрузки промежутка : 504 мс.
Библиотека кодирования : LAME3.97
Настройки программы : -m s -V 4 -q 2 -lowpass 17 -b 128
Скриншот с названием Скриншоты
Скачать

Скачать торрент!

Как скачивать? · Что такое торрент? · Рейтинг и ограничения

Сайт не распространяет и не хранит электронные версии произведений, а лишь предоставляет доступ к создаваемому пользователями каталогу ссылок на торрент-файлы, которые содержат только списки хеш-сумм

[Профиль] [ЛС]
Показать сообщения:    
Ответить на тему

Текущее время: Сегодня 13:42

Часовой пояс: GMT + 4



Вы не можете начинать темы
Вы не можете отвечать на сообщения
Вы не можете редактировать свои сообщения
Вы не можете удалять свои сообщения
Вы не можете голосовать в опросах
Вы не можете прикреплять файлы к сообщениям
Вы не можете скачивать файлы