Неожиданная встреча 2: Потеряный рай / Противостояние: Потерянный рай / The Encounter: Paradise Lost (Бобби Смит / Bobby Smyth) [2012, США, драма, HDTV 1080i] MVO

Ответить на тему
 
Автор Сообщение

user ®

Стаж: 7 лет 7 месяцев

Сообщений: 20008

Пост Пост: #1 от 14-Окт-2014 04:35

[Цитировать]

Неожиданная встреча 2: Потеряный рай / Противостояние: Потерянный рай / The Encounter: Paradise Lost Страна: США
Жанр: драма
Год выпуска: 2012
Продолжительность: 01:40:16
Перевод: Профессиональный (многоголосый закадровый)
Cубтитры: нет
Режиссер: Бобби Смит / Bobby Smyth
В ролях: Дэвид Э.Р. Уайт, Брюс Марчиано, Гэри Дэниелс, Роберт Миано, Абишек Дж. Баджадж, Сахайак Бунсанакит, Ammy Chanicha, Стивен Кларк, Касс, Коннорс, Риф Хаттон
Описание: Несколько побитых жизнью людей оказываются приглашенными человеком, который утверждает, что он никто иной как сам Иисус Христос. Они встают перед решением, которое изменит жизнь: впустить ли в свою жизнь Иисуса Христа. Бывший контрабандист наркотиков, его жена-наркоманка и безжалостный телохранитель попадают в ловушку временно отстраненного спец, агента из наркоконтроля на тайском курорте обеспокоенного бывшего банкира с Уолл-Стрит и его жены, которые скорбят из-за гибели своего единственного сына в ужасном цунами. Это взрывная смесь разных личностей. Насилие вот-вот вырвется наружу, но таинственный гость, утверждающий, что он Иисус Христос, предлагает каждому из них последний шанс на искупление.
Сэмпл: http://rusfolder.com/41961913

Тип релиза: HDTV 1080i
Контейнер: TS
Видео: AVC/H.264, PAL, 1920х1080 (16:9), 25 fps, 5 196 Kbps
Аудио: русский, MP-2, 48000 Hz, 192 Кбит/сек, 2 ch
MediaInfo
General
ID : 1 (0x1)
Complete name : D:\Противостояние. Потерянный рай.ts
Format : MPEG-TS
File size : 3.97 GiB
Duration : 1h 40mn
Overall bit rate mode : Variable
Overall bit rate : 5 670 Kbps
Maximum Overall bit rate : 35.5 Mbps
Video
ID : 4113 (0x1011)
Menu ID : 1 (0x1)
Format : AVC
Format/Info : Advanced Video Codec
Format profile : Main@L4.0
Format settings, CABAC : Yes
Format settings, ReFrames : 3 frames
Codec ID : 27
Duration : 1h 40mn
Bit rate mode : Variable
Bit rate : 5 196 Kbps
Maximum bit rate : 40.0 Mbps
Width : 1 920 pixels
Height : 1 080 pixels
Display aspect ratio : 16:9
Frame rate : 25.000 fps
Standard : Component
Color space : YUV
Chroma subsampling : 4:2:0
Bit depth : 8 bits
Scan type : Interlaced
Scan order : Top Field First
Bits/(Pixel*Frame) : 0.100
Stream size : 3.64 GiB (92%)
Audio
ID : 4352 (0x1100)
Menu ID : 1 (0x1)
Format : MPEG Audio
Format version : Version 1
Format profile : Layer 2
Codec ID : 4
Duration : 1h 40mn
Bit rate mode : Constant
Bit rate : 192 Kbps
Channel(s) : 2 channels
Sampling rate : 48.0 KHz
Compression mode : Lossy
Stream size : 138 MiB (3%)
Language : Russian
Скриншот c названием фильма Скриншоты
Скачать

Скачать торрент!

Как скачивать? · Что такое торрент? · Рейтинг и ограничения

Сайт не распространяет и не хранит электронные версии произведений, а лишь предоставляет доступ к создаваемому пользователями каталогу ссылок на торрент-файлы, которые содержат только списки хеш-сумм

[Профиль] [ЛС]
Показать сообщения:    
Ответить на тему

Текущее время: Сегодня 13:50

Часовой пояс: GMT + 4



Вы не можете начинать темы
Вы не можете отвечать на сообщения
Вы не можете редактировать свои сообщения
Вы не можете удалять свои сообщения
Вы не можете голосовать в опросах
Вы не можете прикреплять файлы к сообщениям
Вы не можете скачивать файлы