Свирепая планета / Другая сторона / Ferocious Planet / The Other Side (Билли О\'Брайэн / Billy O\'Brian) [2011, США, фантастика, триллер, приключения, BDRip 720p] MVO (ТВ-3) + DVO (Jetvis Studio) + Sub Eng + Original Eng

Ответить на тему
 
Автор Сообщение

user ®

Стаж: 7 лет 7 месяцев

Сообщений: 20008

Пост Пост: #1 от 14-Окт-2014 04:35

[Цитировать]

Свирепая планета / Другая сторона / Ferocious Planet / The Other Side
Страна: США
Жанр: фантастика, триллер, приключения, комедия
Год выпуска: 2011
Продолжительность: 01:24:43
-
Перевод 1: Профессиональный (многоголосый закадровый) (ТВ-3)
Перевод 2: Любительский (двухголосый закадровый) (Jetvis Studio) Jet and Stacy
Cубтитры: английские (Full)
Оригинальная аудиодорожка: английский
-
Режиссер: Билли О`Брайэн / Billy O'Brian
В ролях: Джо Фланиган, Катрин Уолкер, Дагмар Доринг, Роберт Суан, Йар Майкл Джегбефьюм, Крис Ньюман, Шаши Рэми, Кевин Флуд, Сэм О’Махони-Адамс, Джон Рис-Дэвис
-
Описание: Группа ученых создала инновационное устройство, чтобы иметь возможность заглянуть в параллельные вселенные. Но во время демонстрации аппарата наблюдательной комиссии Сената США, машина дает сбой и перемещает группу гражданских лиц и нескольких военных в иное измерение, наполненное кошмарными и свирепыми существами. Чтобы выжить в этом ужасе и вернуться домой, путешественники должны использовать всю свою изобретательность…
-

-
Сэмпл: https://www.sendspace.com/file/9uvo9i
-
Тип релиза: BDRip 720p
Контейнер: MKV
Видео: 1280x720p (16:9), 25.000 fps, 5 861 Kbps
Аудио 1: русский / AC3 / 2.0 / 48 kHz / 192 kbps / 16 bit || MVO
Аудио 2: русский / AC3 / 2.0 / 48 kHz / 192 kbps / 16 bit || DVO
Аудио 3: английский / DTS / 5.1 / 48 kHz / 1 509 Kbps / 24 bit || ENG
Формат субтитров: softsub (SRT)
Главы: есть
Доп. информация
Рип от CHD скачан из сети, 1-ая дорожка отсюда - [url=http://***/forum/viewtopic.php?t=3928370]http://***/forum/viewtopic.php?t=3928370[/url], 2-ая - [url=http://***/forum/viewtopic.php?t=3704684]http://***/forum/viewtopic.php?t=3704684[/url], английские субтитры взяты из сети. Авторам спасибо.
MediaInfo
General
Unique ID : 213369112060520045136165849772710468283 (0xA085656E2E24936E96D7CBE1CBBC9ABB)
Complete name : C:\Users\ALEX\Downloads\Фильмы\HD\Ferocious Planet.The Other Side.2011.BDRip.720p.2xRus.Eng.Sub.Chpt.mkv
Format : Matroska
Format version : Version 4 / Version 2
File size : 4.59 GiB
Duration : 1h 24mn
Overall bit rate : 7 755 Kbps
Encoded date : UTC 2014-10-12 07:43:37
Writing application : mkvmerge v6.6.0 ('The Edge Of The In Between') built on Dec 1 2013 17:55:00
Writing library : libebml v1.3.0 + libmatroska v1.4.1
Video
ID : 1
Format : AVC
Format/Info : Advanced Video Codec
Format profile : High@L4.1
Format settings, CABAC : Yes
Format settings, ReFrames : 9 frames
Codec ID : V_MPEG4/ISO/AVC
Duration : 1h 24mn
Bit rate : 5 861 Kbps
Width : 1 280 pixels
Height : 720 pixels
Display aspect ratio : 16:9
Frame rate mode : Constant
Frame rate : 25.000 fps
Color space : YUV
Chroma subsampling : 4:2:0
Bit depth : 8 bits
Scan type : Progressive
Bits/(Pixel*Frame) : 0.254
Stream size : 3.38 GiB (74%)
Title : CHD
Writing library : x264 core 128 r2216+698 b3c1019
Encoding settings : cabac=1 / ref=9 / deblock=1:1:1 / analyse=0x3:0x113 / me=umh / subme=10 / psy=1 / fade_compensate=0.00 / psy_rd=1.05:0.10 / mixed_ref=1 / me_range=32 / chroma_me=1 / trellis=2 / 8x8dct=1 / cqm=0 / deadzone=21,11 / fast_pskip=0 / chroma_qp_offset=-2 / threads=6 / lookahead_threads=1 / sliced_threads=0 / nr=0 / decimate=1 / interlaced=0 / bluray_compat=0 / constrained_intra=0 / fgo=0 / bframes=6 / b_pyramid=2 / b_adapt=2 / b_bias=0 / direct=3 / weightb=1 / open_gop=0 / weightp=2 / keyint=250 / keyint_min=25 / scenecut=40 / intra_refresh=0 / rc=2pass / mbtree=0 / bitrate=5861 / ratetol=1.0 / qcomp=0.70 / qpmin=0 / qpmax=69 / qpstep=4 / cplxblur=20.0 / qblur=0.5 / ip_ratio=1.40 / pb_ratio=1.30 / aq=2:1.00
Language : German
Default : Yes
Forced : No
Audio #1
ID : 2
Format : AC-3
Format/Info : Audio Coding 3
Mode extension : CM (complete main)
Format settings, Endianness : Big
Codec ID : A_AC3
Duration : 1h 24mn
Bit rate mode : Constant
Bit rate : 192 Kbps
Channel(s) : 2 channels
Channel positions : Front: L R
Sampling rate : 48.0 KHz
Bit depth : 16 bits
Compression mode : Lossy
Stream size : 116 MiB (2%)
Title : MVO (ТВ-3)
Language : Russian
Default : Yes
Forced : No
Audio #2
ID : 3
Format : AC-3
Format/Info : Audio Coding 3
Mode extension : CM (complete main)
Format settings, Endianness : Big
Codec ID : A_AC3
Duration : 1h 24mn
Bit rate mode : Constant
Bit rate : 192 Kbps
Channel(s) : 2 channels
Channel positions : Front: L R
Sampling rate : 48.0 KHz
Bit depth : 16 bits
Compression mode : Lossy
Stream size : 116 MiB (2%)
Title : DVO (Jetvis Studio) Jet and Stacy
Language : Russian
Default : No
Forced : No
Audio #3
ID : 4
Format : DTS
Format/Info : Digital Theater Systems
Mode : 16
Format settings, Endianness : Big
Codec ID : A_DTS
Duration : 1h 24mn
Bit rate mode : Constant
Bit rate : 1 509 Kbps
Channel(s) : 6 channels
Channel positions : Front: L C R, Side: L R, LFE
Sampling rate : 48.0 KHz
Bit depth : 24 bits
Compression mode : Lossy
Stream size : 915 MiB (19%)
Title : Original
Language : English
Default : No
Forced : No
Text
ID : 5
Format : UTF-8
Codec ID : S_TEXT/UTF8
Codec ID/Info : UTF-8 Plain Text
Title : Full
Language : English
Default : No
Forced : No
Menu
00:00:00.000 : en:00:00:00.000
00:05:33.840 : en:00:05:33.840
00:12:48.560 : en:00:12:48.560
00:20:01.160 : en:00:20:01.160
00:27:57.320 : en:00:27:57.320
00:32:24.800 : en:00:32:24.800
00:43:18.720 : en:00:43:18.720
00:51:04.080 : en:00:51:04.080
00:58:42.720 : en:00:58:42.720
01:06:07.560 : en:01:06:07.560
01:14:23.240 : en:01:14:23.240
01:23:59.960 : en:01:23:59.960
Скриншоты
Скачать

Скачать торрент!

Как скачивать? · Что такое торрент? · Рейтинг и ограничения

Сайт не распространяет и не хранит электронные версии произведений, а лишь предоставляет доступ к создаваемому пользователями каталогу ссылок на торрент-файлы, которые содержат только списки хеш-сумм

[Профиль] [ЛС]
Показать сообщения:    
Ответить на тему

Текущее время: Сегодня 15:57

Часовой пояс: GMT + 4



Вы не можете начинать темы
Вы не можете отвечать на сообщения
Вы не можете редактировать свои сообщения
Вы не можете удалять свои сообщения
Вы не можете голосовать в опросах
Вы не можете прикреплять файлы к сообщениям
Вы не можете скачивать файлы