Интервенция / Intervention (Мэри МакГакиан / Mary McGuckian) [2007, Великобритания, драма, HDTV 1080i] MVO

Ответить на тему
 
Автор Сообщение

user ®

Стаж: 7 лет 7 месяцев

Сообщений: 20008

Пост Пост: #1 от 14-Окт-2014 04:35

[Цитировать]

Интервенция / Intervention Страна: Великобритания
Жанр: драма
Год выпуска: 2007
Продолжительность: 01:27:20
Перевод: Профессиональный (многоголосый закадровый)
Cубтитры: нет
Режиссер: Мэри МакГакиан / Mary McGuckian
В ролях: Донна Д’Эррико, Чарльз Дэнс, Гэри Фармер, Колм Фиор, Керри Фокс, Дженни Гэбриэлль, Руперт Грейвз, Иэн Харт, Энди МакДауэлл, Рассел Минс
Описание: Эксцентричная компания непохожих друга на друга людей проводит 28 дней под одной крышей. Объединяет наших героев одно — зависимость.
Рип в AVi от edich2 [url=http://***/forum/viewtopic.php?t=4787473]http://***/forum/viewtopic.php?t=4787473[/url]
Сэмпл: http://rusfolder.com/41966507

Тип релиза: HDTV 1080i
Контейнер: TS
Видео: AVC/H.264, PAL, 1920х1080 (16:9), 25 fps, 8603 Кбит/сек
Аудио: русский, MP-2, 48000 Hz, 192 Кбит/сек, 2 ch
MediaInfo
Общее
Идентификатор : 1 (0x1)
Полное имя : D:\Интервенция.ts
Формат : MPEG-TS
Размер файла : 5,64 Гбайт
Продолжительность : 1 ч. 27 м.
Режим общего битрейта : Переменный
Общий поток : 9254 Кбит/сек
Максимальный общий битрейт : 35,5 Мбит/сек
Видео
Идентификатор : 4113 (0x1011)
Идентификатор меню : 1 (0x1)
Формат : AVC
Формат/Информация : Advanced Video Codec
Профиль формата : Main@L4.0
Параметр CABAC формата : Да
Параметр ReFrames формата : 3 кадра
Идентификатор кодека : 27
Продолжительность : 1 ч. 27 м.
Вид битрейта : Переменный
Битрейт : 8603 Кбит/сек
Максимальный битрейт : 40,0 Мбит/сек
Ширина : 1920 пикселей
Высота : 1080 пикселей
Соотношение сторон : 16:9
Частота кадров : 25,000 кадров/сек
Стандарт вещания : Component
Цветовое пространство : YUV
Субдискретизация насыщенности : 4:2:0
Битовая глубина : 8 бит
Тип развёртки : Чересстрочная
Порядок развёртки : Верхнее поле первое
Бит/(Пиксели*Кадры) : 0.166
Размер потока : 5,25 Гбайт (93%)
Аудио
Идентификатор : 4352 (0x1100)
Идентификатор меню : 1 (0x1)
Формат : MPEG Audio
Версия формата : Version 1
Профиль формата : Layer 2
Идентификатор кодека : 4
Продолжительность : 1 ч. 27 м.
Вид битрейта : Постоянный
Битрейт : 192 Кбит/сек
Каналы : 2 канала
Частота : 48,0 КГц
Метод сжатия : С потерями
Размер потока : 120 Мбайт (2%)
Язык : Russian
Скриншот c названием фильма Скриншоты
Скачать

Скачать торрент!

Как скачивать? · Что такое торрент? · Рейтинг и ограничения

Сайт не распространяет и не хранит электронные версии произведений, а лишь предоставляет доступ к создаваемому пользователями каталогу ссылок на торрент-файлы, которые содержат только списки хеш-сумм

[Профиль] [ЛС]
Показать сообщения:    
Ответить на тему

Текущее время: Сегодня 13:41

Часовой пояс: GMT + 4



Вы не можете начинать темы
Вы не можете отвечать на сообщения
Вы не можете редактировать свои сообщения
Вы не можете удалять свои сообщения
Вы не можете голосовать в опросах
Вы не можете прикреплять файлы к сообщениям
Вы не можете скачивать файлы