Для императора / Рэкет. Во имя босса / For the Emperor / Hwangjereul Wihayeo (Пак Сан-чжун / Park Sang-jun) [2014, Корея Южная, драма, боевик, криминал, HDRip] DVO (DeadSno & den904)

Ответить на тему
 
Автор Сообщение

user ®

Стаж: 13 лет

Сообщений: 15071

Пост Пост: #1 от 13-Окт-2014 12:05

[Цитировать]

Для императора / Рэкет. Во имя босса / For the Emperor / Hwangjereul Wihayeo
Страна: Корея Южная
Студия: Opus Pictures
Жанр: драма, боевик, криминал
Год выпуска: 2014
Продолжительность: 01:44:08
Перевод: Любительский (двухголосый закадровый) DeadSno & den904
Cубтитры: нет
Оригинальная аудиодорожка: корейский
Режиссер: Пак Сан-чжун / Park Sang-jun
В ролях: Пак Сон Ун, Ли Мин Ки, Ли Тэ-им, Ким Чжон-гу, Чжон Хын Чхе, Ли Чжэ-Вон
Описание: Перспективные бейсболист Ли Хван был изгнан из своей лиги и потерял все после разразившегося скандала о договорных матчах с его участием. Ожидая возможности вернуться в большой спорт, опальный спортсмен получает работу в крупнейшей Пусанской компании частного займа «Emperor Capital».
II Сэмпл II wikipedia II

Релиз группа:

Качество видео: HDRip (For.the.Emperor.2014.BluRay.720p.DTS.x264-CHD)
Формат видео: AVI
Видео: Xvid 720x304 (2.37:1) 24.0fps Bit rate 2039Kbps b/p 0.388
Аудио 1: AC3 48.0 KHz 6ch. 448kbps rus dvo DeadSno & den904
Аудио 2: AC3 48.0 KHz 6ch. 448kbps kor
MediaInfo
Общее
Полное имя : E:\torrent\Fоr.the.Empеror.2014.HDRip.avi
Формат : AVI
Формат/Информация : Audio Video Interleave
Профиль формата : OpenDML
Размер файла : 2,15 Гбайт
Продолжительность : 1 ч. 44 м.
Общий поток : 2952 Кбит/сек
Программа кодирования : VirtualDubMod 1.5.10.2 (build 2542/release)
Библиотека кодирования : VirtualDubMod build 2542/release
Видео
Идентификатор : 0
Формат : MPEG-4 Visual
Профиль формата : Advanced Simple@L5
Параметр BVOP формата : 2
Параметр QPel формата : Нет
Параметр GMC формата : Без точки перехода
Параметр матрицы формата : Default (H.263)
Идентификатор кодека : XVID
Идентификатор кодека/Подсказка : XviD
Продолжительность : 1 ч. 44 м.
Битрейт : 2039 Кбит/сек
Ширина : 720 пикселей
Высота : 304 пикселя
Соотношение сторон : 2,35:1
Частота кадров : 24,000 кадра/сек
Цветовое пространство : YUV
Субдискретизация насыщенности : 4:2:0
Битовая глубина : 8 бит
Тип развёртки : Прогрессивная
Метод сжатия : С потерями
Бит/(Пиксели*Кадры) : 0.388
Размер потока : 1,48 Гбайт (69%)
Библиотека кодирования : XviD 65
Аудио #1
Идентификатор : 1
Формат : AC-3
Формат/Информация : Audio Coding 3
Расширение режима : CM (complete main)
Параметр Endianness формата : Big
Идентификатор кодека : 2000
Продолжительность : 1 ч. 44 м.
Вид битрейта : Постоянный
Битрейт : 448 Кбит/сек
Каналы : 6 каналов
Расположение каналов : Front: L C R, Side: L R, LFE
Частота : 48,0 КГц
Битовая глубина : 16 бит
Метод сжатия : С потерями
Размер потока : 334 Мбайт (15%)
Выравнивание : Разделение по промежуткам
Продолжительность промежутка : 42 мс. (1,00 видеокадр)
Время предзагрузки промежутка : 500 мс.
Аудио #2
Идентификатор : 2
Формат : AC-3
Формат/Информация : Audio Coding 3
Расширение режима : CM (complete main)
Параметр Endianness формата : Big
Идентификатор кодека : 2000
Продолжительность : 1 ч. 44 м.
Вид битрейта : Постоянный
Битрейт : 448 Кбит/сек
Каналы : 6 каналов
Расположение каналов : Front: L C R, Side: L R, LFE
Частота : 48,0 КГц
Битовая глубина : 16 бит
Метод сжатия : С потерями
Размер потока : 334 Мбайт (15%)
Выравнивание : Разделение по промежуткам
Продолжительность промежутка : 42 мс. (1,00 видеокадр)
Время предзагрузки промежутка : 500 мс.
Скриншот c названием фильма Скриншоты
Скачать

Скачать торрент! Для императора / Рэкет. Во имя босса / For the Emperor / Hwangjereul Wihayeo (Пак Сан-чжун / Park Sang-jun) [2014, Корея Южная, драма, боевик, криминал, HDRip] DVO (DeadSno & den904)

Как скачивать? · Что такое торрент? · Рейтинг и ограничения

Сайт не распространяет и не хранит электронные версии произведений, а лишь предоставляет доступ к создаваемому пользователями каталогу ссылок на торрент-файлы, которые содержат только списки хеш-сумм

[Профиль] [ЛС]
Показать сообщения:    
Ответить на тему

Текущее время: Сегодня 17:08

Часовой пояс: GMT + 4



Вы не можете начинать темы
Вы не можете отвечать на сообщения
Вы не можете редактировать свои сообщения
Вы не можете удалять свои сообщения
Вы не можете голосовать в опросах
Вы не можете прикреплять файлы к сообщениям
Вы не можете скачивать файлы