Криминальная история / Crime Story / Cung on zo (Кирк Вонг / Kirk Wong, Джеки Чан / Jackie Chan) [1993, Китай, Гонконг, боевик, драма, криминал, HDRip] AVO [Ю. Живов]

Ответить на тему
 
Автор Сообщение

user ®

Стаж: 13 лет

Сообщений: 15071

Пост Пост: #1 от 13-Окт-2014 02:00

[Цитировать]

Криминальная история / Crime Story / Cung on zo«The World's Toughest City Needs More Than An Army To Stop The Mob . . . They Need One Man!»- -Страна: Китай, Гонконг
Жанр: боевик, драма, криминал
Год выпуска: 1993
Продолжительность: 01:46:51-Перевод: Авторский (одноголосый закадровый) [Ю. Живов]-Cубтитры: нет
Оригинальная аудиодорожка: нет
Режиссер: Кирк Вонг / Kirk Wong, Джеки Чан / Jackie Chan
В ролях: Джеки Чан, Кент Чэн, Кристин ЭнДжи, Ло Ханг Кенг, Пуишан Онг, Лэн-Лэн Фуа, Сау Люн «Блэки» Ко, Фэт Ван, Кен Ло, Фэт Чунг
Описание: Криминальный триллер, основанный на реальных событиях, о похищении людей и коррупции в полиции Гонкога. Инспектор, заданием которого является защита известного магната. Но бизнесмена все-таки похищают…
Релиз от -
Сэмпл: http://multi-up.com/1005700
Качество видео: HDRip
Формат видео: AVI
Видео: MPEG-4 Visual at 842 Кбит/сек; 688 x 368 (1.870) at 23.976 fps
Аудио: MPEG Audio at 128 Кбит/сек; 2 канала, 48,0 КГц
Автор -
MediaInfo
Общее
Полное имя : D:\Фильмы\Азиатские\Криминальная история\Crime Story.1993.HDRip.XviD.745MB. rip by [Assassin's Creed].avi
Формат : AVI
Формат/Информация : Audio Video Interleave
Размер файла : 749 Мбайт
Продолжительность : 1 ч. 46 м.
Общий поток : 980 Кбит/сек
Программа кодирования : VirtualDubMod 1.5.10.2 (build 2540/release)
Библиотека кодирования : VirtualDubMod build 2540/release
Видео
Идентификатор : 0
Формат : MPEG-4 Visual
Профиль формата : Advanced Simple@L5
Параметр BVOP формата : 1
Параметр QPel формата : Нет
Параметр GMC формата : Без точки перехода
Параметр матрицы формата : Default (MPEG)
Идентификатор кодека : XVID
Идентификатор кодека/Подсказка : XviD
Продолжительность : 1 ч. 46 м.
Битрейт : 842 Кбит/сек
Ширина : 688 пикселей
Высота : 368 пикселей
Соотношение сторон : 1,85:1
Частота кадров : 23,976 кадра/сек
Цветовое пространство : YUV
Субдискретизация насыщенности : 4:2:0
Битовая глубина : 8 бит
Тип развёртки : Прогрессивная
Метод сжатия : С потерями
Бит/(Пиксели*Кадры) : 0.139
Размер потока : 644 Мбайт (86%)
Библиотека кодирования : XviD 1.2.1 (UTC 2008-12-04)
Аудио
Идентификатор : 1
Формат : MPEG Audio
Версия формата : Version 1
Профиль формата : Layer 3
Идентификатор кодека : 55
Идентификатор кодека/Подсказка : MP3
Продолжительность : 1 ч. 46 м.
Вид битрейта : Постоянный
Битрейт : 128 Кбит/сек
Каналы : 2 канала
Частота : 48,0 КГц
Метод сжатия : С потерями
Размер потока : 97,7 Мбайт (13%)
Выравнивание : Соединение по промежуткам
Продолжительность промежутка : 42 мс. (1,00 видеокадр)
Время предзагрузки промежутка : 504 мс.
Библиотека кодирования : LAME3.99r
Настройки программы : -m s -V 4 -q 2 -lowpass 17 -b 128
Скриншот c названием фильма Скриншоты
Скачать

Скачать торрент! Криминальная история / Crime Story / Cung on zo (Кирк Вонг / Kirk Wong, Джеки Чан / Jackie Chan) [1993, Китай, Гонконг, боевик, драма, криминал, HDRip] AVO [Ю. Живов]

Как скачивать? · Что такое торрент? · Рейтинг и ограничения

Сайт не распространяет и не хранит электронные версии произведений, а лишь предоставляет доступ к создаваемому пользователями каталогу ссылок на торрент-файлы, которые содержат только списки хеш-сумм

[Профиль] [ЛС]
Показать сообщения:    
Ответить на тему

Текущее время: Сегодня 16:47

Часовой пояс: GMT + 4



Вы не можете начинать темы
Вы не можете отвечать на сообщения
Вы не можете редактировать свои сообщения
Вы не можете удалять свои сообщения
Вы не можете голосовать в опросах
Вы не можете прикреплять файлы к сообщениям
Вы не можете скачивать файлы