Если твоя девушка – зомби / Life After Beth (Джефф Баэна / Jeff Baena) [2014, США, Мелодрама, Комедия, Ужасы, BDRip] Dub

Ответить на тему
 
Автор Сообщение

user ®

Стаж: 7 лет 7 месяцев

Сообщений: 20008

Пост Пост: #1 от 13-Окт-2014 02:00

[Цитировать]

Если твоя девушка – зомби / Life After Beth-«Будь осторожен в своих желаниях...» -Страна: США
Студии: Abbolita Productions, American Zoetrope, Destro Films
Жанр: Мелодрама, Комедия, Ужасы
Год выпуска: 2014
Продолжительность: 01:29:00
Перевод: Профессиональный (дублированный) | iTunes |
Cубтитры: нет
Оригинальная аудиодорожка: нет-Режиссер: Джефф Баэна / Jeff Baena-В ролях: Дэйн ДеХаан, Джон С. Райлли, Обри Плаза, Молли Шеннон, Шерил Хайнс, Пол Райзер, Мэттью Грей Гублер, Анна Кендрик, Эва Ла Даре, Томас МакДонелл...-Описание: Когда у Зака умирает его девушка, он безутешен. Однако вскоре, неожиданно для всех, она чудесным образом возвращается, но в новом качестве — она теперь зомби! Поскольку внешне девушка пока мало чем отличается от себя прежней, а Зак все еще любит ее, он с радостью принимает ее к себе в дом. Правда теперь ему придется смириться с некоторыми ее новыми привычками…-Автор рипа: _Flash- -Качество видео: BDRip | Life.After.Beth.2014.1080p.BluRay.Remux.ExKinoRay |
Формат видео: AVI
Видео: 720x384, 23.976 fps, XviD build 73 ~1960 kbps avg, 0.300 bit/pixel
Аудио: 48 kHz, AC3 Dolby Digital, 3/2 (L,C,R,l,r) + LFE ch, ~384.00 kbps
-Дополнительно о фильме:
Производство, студия дубляжа, прокат:
MediaInfo
General
Complete name : D:\Rip's_By_Flash\Life.After.Beth.BDRip.By_Flash.avi
Format : AVI
Format/Info : Audio Video Interleave
File size : 1.46 GiB
Duration : 1h 29mn
Overall bit rate : 2 353 Kbps
Writing application : VirtualDubMod 1.5.10.3 | www.virtualdub-fr.org || (build 2550/release)
Writing library : VirtualDubMod build 2550/release
Video
ID : 0
Format : MPEG-4 Visual
Format profile : Advanced Simple@L5
Format settings, BVOP : 1
Format settings, QPel : No
Format settings, GMC : No warppoints
Format settings, Matrix : Custom
Codec ID : XVID
Codec ID/Hint : XviD
Duration : 1h 29mn
Bit rate : 1 960 Kbps
Width : 720 pixels
Height : 384 pixels
Display aspect ratio : 1.85:1
Frame rate : 23.976 fps
Color space : YUV
Chroma subsampling : 4:2:0
Bit depth : 8 bits
Scan type : Progressive
Compression mode : Lossy
Bits/(Pixel*Frame) : 0.296
Stream size : 1.22 GiB (83%)
Writing library : XviD 73
Audio
ID : 1
Format : AC-3
Format/Info : Audio Coding 3
Mode extension : CM (complete main)
Format settings, Endianness : Big
Codec ID : 2000
Duration : 1h 28mn
Bit rate mode : Constant
Bit rate : 384 Kbps
Channel(s) : 6 channels
Channel positions : Front: L C R, Side: L R, LFE
Sampling rate : 48.0 KHz
Bit depth : 16 bits
Compression mode : Lossy
Stream size : 244 MiB (16%)
Alignment : Split accross interleaves
Interleave, duration : 42 ms (1.00 video frame)
Interleave, preload duration : 500 ms
Скриншот c названием фильма Скриншоты
Скачать

Скачать торрент!

Как скачивать? · Что такое торрент? · Рейтинг и ограничения

Сайт не распространяет и не хранит электронные версии произведений, а лишь предоставляет доступ к создаваемому пользователями каталогу ссылок на торрент-файлы, которые содержат только списки хеш-сумм

[Профиль] [ЛС]
Показать сообщения:    
Ответить на тему

Текущее время: Сегодня 10:04

Часовой пояс: GMT + 4



Вы не можете начинать темы
Вы не можете отвечать на сообщения
Вы не можете редактировать свои сообщения
Вы не можете удалять свои сообщения
Вы не можете голосовать в опросах
Вы не можете прикреплять файлы к сообщениям
Вы не можете скачивать файлы