Долина Папоротников: Последний Тропический Лес / FernGully: The Last Rainforest (Билл Кройер / Bill Croyer) [1992, Австралия, США, мультфильм, приключения, фэнтези, семейный, BDRip] MVO (Новый Канал)

Ответить на тему
 
Автор Сообщение

user ®

Стаж: 13 лет

Сообщений: 15041

Пост Пост: #1 от 12-Окт-2014 19:40

[Цитировать]

Долина Папоротников: Последний Тропический Лес / FernGully: The Last Rainforest
Год выпуска: 1992
Страна: Австралия, США
Жанр: мультфильм, приключения, фэнтези, семейный
Продолжительность: 01:15:52
Перевод: Профессиональный (многоголосый закадровый) - Новый Канал
Cубтитры: нет
Режиссер: Билл Кройер / Bill Croyer
В ролях: Тим Карри (Hexxus), Саманта Мэтис (Crysta), Кристиан Слэйтер (Pips), Джонатан Уорд (Zak), Робин Уильямс (Batty Koda), Грейс Забриски (Magi Lune), Джеффри Блейк (Ralph), Роберт Пасторелли (Tony), Чич Марин (Stump), Томми Чонг (Root)-Мировая премьера: 10 апреля 1992-Описание: Хексус — это злой дух. Его задача — причинять боль и страдания. Он появился из раскаленного ядра Земли и принялся уничтожать сказочно красивый тропический лес, населенный забавными мистическими существами. Только объединившись и обратив свои мольбы к магическим силам природы, жителям леса удалось заточить Хексуса в одно из деревьев. Но скоро зверушки опять сталкиваются со смертельной опасностью, на сей раз исходящей со стороны людей, занимающихся вырубкой лесов. Своими мощными бульдозерами люди сносят подкорень вековые деревья, не подозревая о том, что в одном из них своего часа дожидается мощнейшая безжалостная сила, несущая смерть всему живому. Но наши маленькие герои проявляют чудеса смекалки и с юмором расправляются со всеми своими обидчиками.-Доп. информация:
За [url=http://***/forum/viewtopic.php?t=4027876]исходник видео[/url] большое спасибо [url=http://***/forum/profile.php?mode=viewprofile&u=1793838]xfiles[/url].
За запись русского перевода с украинского телеканала Новый Канал с телевидения в 90-х годах через видеомагнитофон и оцифровку с видеокассеты большое спасибо [url=http://***/forum/profile.php?mode=viewprofile&u=32080853]Home Video[/url].
Синхрон перевода - [url=http://***/forum/profile.php?mode=viewprofile&u=3190918]JUSTKANT[/url].-Информация о переводе:
Данный перевод на трекере появляется впервые.-[url=http://static.***] [/url]
Рейтинг
kinopoisk.ru: 7.894 (5439)
imdb.com: 6.40 (17 529)
MPAA: PG - Рекомендуется присутствие родителей.-Качество видео: BDRip
Формат видео: AVI -> //SAMPLE//
Видео: DivX, 704x384 (1,85:1), 23.976 fps, 2363 kbps avg
Аудио:
1 - 48 khz, AC3 Dolby Digital, 2/0 (L,R) ch, ~192 kbps [Новый Канал] VHSRip

MediaInfo
Общее
Полное имя : E:\Альберт\Downloads\Долина Папоротников - Последний Тропический Лес (Новый Канал).avi
Формат : AVI
Формат/Информация : Audio Video Interleave
Размер файла : 1,36 Гбайт
Продолжительность : 1 ч. 15 м.
Общий поток : 2564 Кбит/сек
Название фильма : FernGully: The Last Rainforest (1992)
Режиссёр : Bill Kroyer
Программа кодирования : VirtualDubMod 1.5.10.2 (build 2540/release)
Библиотека кодирования : VirtualDubMod build 2540/release
Видео
Идентификатор : 0
Формат : MPEG-4 Visual
Профиль формата : Advanced Simple@L5
Параметр BVOP формата : 2
Параметр QPel формата : Нет
Параметр GMC формата : Без точки перехода
Параметр матрицы формата : Выборочная
Идентификатор кодека : DX50
Идентификатор кодека/Подсказка : DivX 5
Продолжительность : 1 ч. 15 м.
Битрейт : 2363 Кбит/сек
Ширина : 704 пикселя
Высота : 384 пикселя
Соотношение сторон : 1,85:1
Частота кадров : 23,976 кадра/сек
Цветовое пространство : YUV
Субдискретизация насыщенности : 4:2:0
Битовая глубина : 8 бит
Тип развёртки : Прогрессивная
Метод сжатия : С потерями
Бит/(Пиксели*Кадры) : 0.365
Размер потока : 1,25 Гбайт (92%)
Библиотека кодирования : XviD 65
Аудио
Идентификатор : 1
Формат : AC-3
Формат/Информация : Audio Coding 3
Расширение режима : CM (complete main)
Параметр Endianness формата : Big
Идентификатор кодека : 2000
Продолжительность : 1 ч. 15 м.
Вид битрейта : Постоянный
Битрейт : 192 Кбит/сек
Каналы : 2 канала
Расположение каналов : Front: L R
Частота : 48,0 КГц
Битовая глубина : 16 бит
Метод сжатия : С потерями
Размер потока : 104 Мбайт (7%)
Выравнивание : Разделение по промежуткам
Продолжительность промежутка : 42 мс. (1,00 видеокадр)
Время предзагрузки промежутка : 500 мс.
Скриншот c названием фильма Скриншоты
Скачать

Скачать торрент! Долина Папоротников: Последний Тропический Лес / FernGully: The Last Rainforest (Билл Кройер / Bill Croyer) [1992, Австралия, США, мультфильм, приключения, фэнтези, семейный, BDRip] MVO (Новый Канал)

Как скачивать? · Что такое торрент? · Рейтинг и ограничения

Сайт не распространяет и не хранит электронные версии произведений, а лишь предоставляет доступ к создаваемому пользователями каталогу ссылок на торрент-файлы, которые содержат только списки хеш-сумм

[Профиль] [ЛС]
Показать сообщения:    
Ответить на тему

Текущее время: Сегодня 03:08

Часовой пояс: GMT + 4



Вы не можете начинать темы
Вы не можете отвечать на сообщения
Вы не можете редактировать свои сообщения
Вы не можете удалять свои сообщения
Вы не можете голосовать в опросах
Вы не можете прикреплять файлы к сообщениям
Вы не можете скачивать файлы