Повар на колесах / Chef (Джон Фавро / Jon Favreau) [2014, США, Комедия, драма, семейный, HDRip] Dub (iTunes)

Ответить на тему
 
Автор Сообщение

user ®

Стаж: 7 лет 7 месяцев

Сообщений: 20008

Пост Пост: #1 от 12-Окт-2014 19:40

[Цитировать]

-Повар на колесах / Chef-«Starting from scratch never tasted so good»- Страна: США, Aldamisa Entertainment
Жанр: Комедия, драма, семейный
Год выпуска: 2014
Продолжительность: 01:49:54-Перевод: Профессиональный (дублированный) iTunes
Cубтитры: нет
Оригинальная аудиодорожка: нет-Режиссер: Джон Фавро / Jon Favreau-В ролях: Джон Фавро, Эмджей Энтони, София Вергара, Джон Легуизамо, Скарлетт Йоханссон, Оливер Плэтт, Бобби Каннавейл, Дастин Хоффман, Роберт Дауни мл., Эми Седарис-Описание: Сюжет фильма разворачивается вокруг шеф-повара Карла Каспера, потерявшего работу в известном ресторане Лос-Анджелеса. Вместе с сыном и бывшим напарником Карл решает организовать сеть закусочных на колесах, чтобы отыскать потерянное кулинарное вдохновение и попутно наладить отношения с семьей.-Рейтинги MPAA: Рейтинг R - Детям до 17 лет обязательно присутствие родителей
Возраст: зрителям, достигшим 12 лет- | | -Качество видео: HDRip
Формат видео: AVI
Видео: 720x304 (2.37:1), 25 fps, XviD build 50 ~1443 kbps avg, 0.26 bit/pixel
Аудио: 48 kHz, AC3 Dolby Digital, 3/2 (L,C,R,l,r) + LFE ch, ~448 kbps
-Дополнительная информация
Сценарий: Джон Фавро
Продюсер: Сергей Беспалов, Джон Фавро, Карен Джонсон
Оператор: Крамер Моргенто
Художник: Дениза Пиццини, Алисия Маккароне, Лаура Джин Шеннон
Монтаж: Роберт Лейтон
Сборы в США: $31 424 003
Сборы в мире: + $14 543 932 = $45 967 935 сборы
Сборы в России: $281 752
Премьера (мир): 28 апреля 2014
Премьера (РФ): 5 июня 2014, «Top Film Distribution»
Релиз на DVD:14 октября 2014, «Lizard Cinema Trade»
Знаете ли вы, что...
  • Во время съемок фильма Джон Фавро готовил свои собственные блюда, обучаясь у шеф-повара Роя Чоя (Roy Cho), который, как и его персонаж, работает в закусочной на колесах.
  • Когда Карл с сыном сидят в кинотеатре, можно услышать звук репульсоров из фильма «Железный человек» (2008), режиссером которого является Джон Фавро.
MediaInfo
General
Complete name : D:\Фильмы\Povar na kolesah 2014 HDRip 1450.avi
Format : AVI
Format/Info : Audio Video Interleave
File size : 1.46 GiB
Duration : 1h 49mn
Overall bit rate : 1 901 Kbps
Writing application : VirtualDubMod 1.5.10.2 (build 2540/release)
Writing library : VirtualDubMod build 2540/release
Video
ID : 0
Format : MPEG-4 Visual
Format profile : Advanced Simple@L5
Format settings, BVOP : 2
Format settings, QPel : No
Format settings, GMC : No warppoints
Format settings, Matrix : Default (MPEG)
Codec ID : XVID
Codec ID/Hint : XviD
Duration : 1h 49mn
Bit rate : 1 444 Kbps
Width : 720 pixels
Height : 304 pixels
Display aspect ratio : 2.35:1
Frame rate : 25.000 fps
Color space : YUV
Chroma subsampling : 4:2:0
Bit depth : 8 bits
Scan type : Progressive
Compression mode : Lossy
Bits/(Pixel*Frame) : 0.264
Stream size : 1.11 GiB (76%)
Writing library : XviD 1.2.1 (UTC 2008-12-04)
Audio
ID : 1
Format : AC-3
Format/Info : Audio Coding 3
Mode extension : CM (complete main)
Format settings, Endianness : Big
Codec ID : 2000
Duration : 1h 49mn
Bit rate mode : Constant
Bit rate : 448 Kbps
Channel(s) : 6 channels
Channel positions : Front: L C R, Side: L R, LFE
Sampling rate : 48.0 KHz
Bit depth : 16 bits
Compression mode : Lossy
Stream size : 352 MiB (24%)
Alignment : Split accross interleaves
Interleave, duration : 40 ms (1.00 video frame)
Interleave, preload duration : 500 ms
Скриншот c названием фильма Скриншоты -
Скачать

Скачать торрент!

Как скачивать? · Что такое торрент? · Рейтинг и ограничения

Сайт не распространяет и не хранит электронные версии произведений, а лишь предоставляет доступ к создаваемому пользователями каталогу ссылок на торрент-файлы, которые содержат только списки хеш-сумм

[Профиль] [ЛС]
Показать сообщения:    
Ответить на тему

Текущее время: Сегодня 07:58

Часовой пояс: GMT + 4



Вы не можете начинать темы
Вы не можете отвечать на сообщения
Вы не можете редактировать свои сообщения
Вы не можете удалять свои сообщения
Вы не можете голосовать в опросах
Вы не можете прикреплять файлы к сообщениям
Вы не можете скачивать файлы