Превосходство / Transcendence (Уолли Пфистер / Wally Pfister) [2014, Великобритания, Китай, США, Фантастика, триллер, драма, детектив, HDRip] Dub (Line)

Ответить на тему
 
Автор Сообщение

user ®

Стаж: 8 лет 1 месяц

Сообщений: 20008

Пост Пост: #1 от 12-Окт-2014 19:40

[Цитировать]

-Превосходство / Transcendence-«What if a new intelligence was born?»- Страна: Великобритания, Китай, США
Жанр: Фантастика, триллер, драма, детектив
Год выпуска: 2014
Продолжительность: 01:59:16-Перевод: Профессиональный (дублированный) Line
Cубтитры: нет
Оригинальная аудиодорожка: нет-Режиссер: Уолли Пфистер / Wally Pfister-В ролях: Джонни Депп, Ребекка Холл, Пол Беттани, Киллиан Мёрфи, Морган Фримен, Кейт Мара, Клифтон Коллинз мл., Коул Хаузер, Джош Стюарт, Кори Хардрикт-Описание: Выдающийся исследователь в области изучения искусственного интеллекта доктор Уилл Кастер работает над созданием компьютера, который сможет собрать в себе все знания и опыт, накопленные человечеством. Достаточно спорные эксперименты, проводимые Уиллом, прославили его и в то же время сделали основной целью радикальной анти-технологической группировки. Экстремисты делают всё возможное, чтобы остановить учёного.
Однако в своих попытках уничтожить Уилла они добиваются обратного и становятся невольными участниками становления его абсолютного превосходства. Для его жены Эвелин и лучшего друга Макса Вотерса, тоже учёных-исследователей, встаёт вопрос, должны ли они продолжать этот эксперимент. Их худшие опасения претворяются в жизнь, когда жажда знаний Уилла переходит в неконтролируемую жажду власти…-Рейтинги MPAA: Рейтинг PG-13 - Детям до 13 лет просмотр не желателен
Возраст: зрителям, достигшим 12 лет- | | -Качество видео: HDRip
Формат видео: MPEG-4 AVC
Видео: MPEG-4 AVC, 1024x426(2.40.1), 2700 Kbps, 23,976fps, AVC
Аудио: 48 kHz, 2chanels, AC3 Dolby Digital, 3/2 (L,C,R,l,r) + LFE ch, ~384kbps
-Дополнительная информация
Сценарий: Джек Паглен
Продюсер:
Оператор: Джесс Холл
Композитор: Майкл Дэнна
Художник: Крис Сигерс, Том Фролинг, Грегори С. Хупер
Монтаж: Дэвид Розенблюм
Бюджет: $100 000 000
Сборы в США: $23 022 309
Сборы в мире: + $80 016 949 = $103 039 258 сборы
Сборы в России: $4 722 210
Премьера (мир): 10 апреля 2014, ...
Премьера (РФ): 10 июля 2014, «West»
Знаете ли вы, что...
  • Когда Эвелин заселяется в отель, в котором Уилл резервировал для нее номер, она говорит у стойки регистрации, что у нее забронирован номер на имя «Тьюринг». Алан Тьюринг (Alan Turing) был британским математиком и ученым, который разработал концепцию «Универсальной машины» и изобрел тест Тьюринга — метод определения «разумности» компьютера.
  • Первоначальный сценарий к фильму, написанный Джеком Пагленом, попал в «Чёрный список» лучших неспродюсированных сценариев 2012-го года.
  • На одну из главных ролей рассматривались: Джуд Лоу, Джеймс МакЭвой, Тоби Магуайр и Кристиан Бэйл.
  • Роль второго плана предлагалась Кристофу Вальцу.
  • После того, как Кейт Уинслет из-за несогласованности расписаний съёмок отказалась от главной женской роли, на ее место рассматривалась кандидатура Нуми Рапас.
  • Юэн МакГрегор и Том Харди рассматривались на роль Макса, но они оба отказались из-за несогласованности графика съёмок.
  • На роль Эвелин рассматривались Ребекка Холл, Эмили Блант и Руни Мара.
  • Продолжая свою активную пропаганду касательно использования кинопленки вместо цифровых форматов, Уолли Пфистер снял этот фильм в анаморфном формате на 35-мм пленку и отказался от использования цифровой камеры. Также он использовал фотохимическую обработку, отказавшись от цифрового интернегатива.
  • Элисон Бри пробовалась на роль, которую в итоге получила Кейт Мара.
  • Этот фильм стал режиссерским дебютом Уолли Пфистера..
MediaInfo
General
Unique ID : 242232835824573065009125730830236022213 (0xB63C58E2490355A387F2903F67AC75C5)
Complete name : D:\Фильмы\Prevoshodstvo HDRip 2014 AVC..mkv
Format : Matroska
Format version : Version 4 / Version 2
File size : 2.57 GiB
Duration : 1h 59mn
Overall bit rate : 3 081 Kbps
Encoded date : UTC 2014-08-29 22:50:03
Writing application : mkvmerge v6.1.0 ('Old Devil') built on Mar 2 2013 14:32:37
Writing library : libebml v1.3.0 + libmatroska v1.4.0
Video
ID : 1
Format : AVC
Format/Info : Advanced Video Codec
Format profile : High@L4.1
Format settings, CABAC : Yes
Format settings, ReFrames : 10 frames
Codec ID : V_MPEG4/ISO/AVC
Duration : 1h 59mn
Bit rate : 2 700 Kbps
Width : 1 024 pixels
Height : 426 pixels
Display aspect ratio : 2.40:1
Frame rate mode : Constant
Frame rate : 23.976 fps
Color space : YUV
Chroma subsampling : 4:2:0
Bit depth : 8 bits
Scan type : Progressive
Bits/(Pixel*Frame) : 0.258
Stream size : 2.20 GiB (86%)
Writing library : x264 core 130 r2273 b3065e6
Encoding settings : cabac=1 / ref=10 / deblock=1:-2:-2 / analyse=0x3:0x133 / me=umh / subme=11 / psy=1 / psy_rd=1.00:0.10 / mixed_ref=1 / me_range=32 / chroma_me=1 / trellis=2 / 8x8dct=1 / cqm=0 / deadzone=21,11 / fast_pskip=0 / chroma_qp_offset=-3 / threads=6 / lookahead_threads=1 / sliced_threads=0 / nr=0 / decimate=1 / interlaced=0 / bluray_compat=0 / constrained_intra=0 / bframes=3 / b_pyramid=2 / b_adapt=2 / b_bias=0 / direct=3 / weightb=1 / open_gop=0 / weightp=2 / keyint=240 / keyint_min=23 / scenecut=40 / intra_refresh=0 / rc_lookahead=50 / rc=2pass / mbtree=1 / bitrate=2700 / ratetol=1.0 / qcomp=0.60 / qpmin=0 / qpmax=69 / qpstep=4 / cplxblur=20.0 / qblur=0.5 / ip_ratio=1.40 / aq=1:1.00
Default : Yes
Forced : No
Audio
ID : 2
Format : AC-3
Format/Info : Audio Coding 3
Mode extension : CM (complete main)
Format settings, Endianness : Big
Codec ID : A_AC3
Duration : 1h 59mn
Bit rate mode : Constant
Bit rate : 384 Kbps
Channel(s) : 2 channels
Channel positions : Front: L R
Sampling rate : 48.0 KHz
Bit depth : 16 bits
Compression mode : Lossy
Stream size : 328 MiB (12%)
Default : Yes
Forced : No
Скриншот c названием фильма Скриншоты -
Скачать

Скачать торрент!

Как скачивать? · Что такое торрент? · Рейтинг и ограничения

Сайт не распространяет и не хранит электронные версии произведений, а лишь предоставляет доступ к создаваемому пользователями каталогу ссылок на торрент-файлы, которые содержат только списки хеш-сумм

[Профиль] [ЛС]
Показать сообщения:    
Ответить на тему

Текущее время: Сегодня 16:36

Часовой пояс: GMT + 4



Вы не можете начинать темы
Вы не можете отвечать на сообщения
Вы не можете редактировать свои сообщения
Вы не можете удалять свои сообщения
Вы не можете голосовать в опросах
Вы не можете прикреплять файлы к сообщениям
Вы не можете скачивать файлы