Нереальная любовь (Арман Геворгян.) [2014, комедия, WEB-DLRip]

Ответить на тему
 
Автор Сообщение

user ®

Стаж: 7 лет 7 месяцев

Сообщений: 20008

Пост Пост: #1 от 12-Окт-2014 12:10

[Цитировать]

Нереальная любовь-«Все так хотят!»- Жанр: комедия
Год выпуска: 2014
Продолжительность: 01:19:50-Режиссёр: Арман Геворгян.-В ролях: Равшана Куркова, Марина Александрова, Егор Бероев, Гоша Куценко, Егор Пазенко, Игорь Верник, Янина Студилина, Оскар Кучера, Дмитрий Ендальцев, Анна Щербинина.-Описание: Мира и Ольга когда-то учились в одном классе и спустя 10 лет случайно встречаются вновь. Светская львица решает наладить личную жизнь одноклассницы и помогает ей превратиться из наивной серой мышки в роковую красотку. Девушки в поисках единственного и неповторимого.-КиноПоиск | IMDB | Семпл-Качество видео: WEB-DLRip
Формат видео: AVI
Видео: 720x304 (2.37:1), 25 fps, XviD build 73 ~2151 kbps avg, 0.39 bit/pixel
Аудио: 48 kHz, AC3 Dolby Digital, 3/2 (L,C,R,l,r) + LFE ch, ~448 kbps
MediaInfo
General
Complete name : E:\Нереальная любовь.(Logan1995).avi
Format : AVI
Format/Info : Audio Video Interleave
File size : 1,46 Гбайт
Duration : 1 ч. 19 м.
Overall bit rate : 2609 Кбит/сек
Writing application : VirtualDubMod 1.5.10.3 | www.virtualdub-fr.org || (build 2550/release)
Writing library : VirtualDubMod build 2550/release
Video
ID : 0
Format : MPEG-4 Visual
Format profile : Advanced Simple@L5
Format settings, BVOP : 1
Format settings, QPel : Нет
Format settings, GMC : Без точки перехода
Format settings, Matrix : Выборочная
Codec ID : XVID
Codec ID/Hint : XviD
Duration : 1 ч. 19 м.
Bit rate : 2152 Кбит/сек
Width : 720 пикселей
Height : 304 пикселя
Display aspect ratio : 2,35:1
Frame rate : 25,000 кадров/сек
Color space : YUV
Chroma subsampling : 4:2:0
Bit depth : 8 бит
Scan type : Прогрессивная
Compression mode : С потерями
Bits/(Pixel*Frame) : 0.393
Stream size : 1,20 Гбайт (82%)
Writing library : XviD 73
Audio
ID : 1
Format : AC-3
Format/Info : Audio Coding 3
Mode extension : CM (complete main)
Format settings, Endianness : Big
Codec ID : 2000
Duration : 1 ч. 19 м.
Bit rate mode : Постоянный
Bit rate : 448 Кбит/сек
Channel(s) : 6 каналов
Channel positions : Front: L C R, Side: L R, LFE
Sampling rate : 48,0 КГц
Bit depth : 16 бит
Compression mode : С потерями
Stream size : 256 Мбайт (17%)
Alignment : Разделение по промежуткам
Interleave, duration : 40 мс. (1,00 видеокадр)
Interleave, preload duration : 500 мс.
Скриншоты
Скачать

Скачать торрент!

Как скачивать? · Что такое торрент? · Рейтинг и ограничения

Сайт не распространяет и не хранит электронные версии произведений, а лишь предоставляет доступ к создаваемому пользователями каталогу ссылок на торрент-файлы, которые содержат только списки хеш-сумм

[Профиль] [ЛС]
Показать сообщения:    
Ответить на тему

Текущее время: Сегодня 07:58

Часовой пояс: GMT + 4



Вы не можете начинать темы
Вы не можете отвечать на сообщения
Вы не можете редактировать свои сообщения
Вы не можете удалять свои сообщения
Вы не можете голосовать в опросах
Вы не можете прикреплять файлы к сообщениям
Вы не можете скачивать файлы