Распутный квартет / The Lickerish Quartet (Рэдли Мецгер / Radley Metzger) [1970, Италия, США, Германия (ФРГ), драма, эротика, BDRip 1080p] AVO (Антон Алексеев) + Sub Eng + Original Eng

Ответить на тему
 
Автор Сообщение

user ®

Стаж: 7 лет 7 месяцев

Сообщений: 20008

Пост Пост: #1 от 12-Окт-2014 02:40

[Цитировать]

Распутный квартет / The Lickerish Quartet
Страна: Италия, США, Германия (ФРГ)
Жанр: драма, эротика
Год выпуска: 1970
Продолжительность: 01:27:46
Перевод: Авторский (одноголосый закадровый) Антон Алексеев
Cубтитры: английские
Оригинальная аудиодорожка: английский
Режиссер: Рэдли Мецгер / Radley Metzger
В ролях: Сильвана Вентурелли, Фрэнк Вулф, Эрика Ремберг, Паоло Турко, Карл-Отто Альберти
Описание: Богатая супружеская пара, уставшая от жизни, смотрит домашнее порно в своем замке. Через пару часов они знакомятся с девушкой, которая как две капли воды похожа на одну из разнузданных проституток на экране. Кто она? Начинается игра в прятки, которую можно назвать эротическим дуэтом для четверых. Эротика переплетается с детективом, прошлое с настоящим. а экранная жизнь с реальностью.
Кинопоиск|Imdb|Сэмпл
Тип релиза: BDRip 1080p
Контейнер: MKV
Видео: MPEG4 Video (H264) 1920x1028 (127:68) 23.976fps 13.4 Mbps
Аудио: Русский AC-3 2 ch 48.0 KHz 192 Kbps
Аудио 2: Английский AC-3 2 ch 48.0 KHz 192 Kbps
Аудио 3: Английский AC-3 2 ch 48.0 KHz 192 Kbps Commentary
Формат субтитров: softsub (SRT)
MediaInfo
General
Unique ID : 223284146290656575207688794957198123921 (0xA7FAF65C3AC525E4B26EC59C7E1BE391)
Complete name : C:\Users\Вика\Desktop\The.Lickerish.Quartet.1970.BDRip.1080p.mkv
Format : Matroska
Format version : Version 4 / Version 2
File size : 8.57 GiB
Duration : 1h 27mn
Overall bit rate : 14.0 Mbps
Encoded date : UTC 2014-10-10 07:46:40
Writing application : mkvmerge v6.9.1 ('Blue Panther') 64bit built on Apr 18 2014 18:23:38
Writing library : libebml v1.3.0 + libmatroska v1.4.1
Video
ID : 1
Format : AVC
Format/Info : Advanced Video Codec
Format profile : High@L4.1
Format settings, CABAC : Yes
Format settings, ReFrames : 4 frames
Codec ID : V_MPEG4/ISO/AVC
Duration : 1h 27mn
Bit rate : 13.4 Mbps
Width : 1 920 pixels
Height : 1 028 pixels
Display aspect ratio : 1.85:1
Frame rate mode : Constant
Frame rate : 23.976 fps
Color space : YUV
Chroma subsampling : 4:2:0
Bit depth : 8 bits
Scan type : Progressive
Bits/(Pixel*Frame) : 0.283
Stream size : 8.05 GiB (94%)
Title : MPEG-4 x264@High Profile L4.1, 24.000/1.001 fps @ 13400 kbps
Writing library : x264 core 116 r2044 392e762
Encoding settings : cabac=1 / ref=4 / deblock=1:-3:-3 / analyse=0x3:0x133 / me=umh / subme=10 / psy=1 / psy_rd=1.00:0.00 / mixed_ref=1 / me_range=32 / chroma_me=1 / trellis=2 / 8x8dct=1 / cqm=0 / deadzone=21,11 / fast_pskip=0 / chroma_qp_offset=-2 / threads=12 / sliced_threads=0 / nr=0 / decimate=0 / interlaced=0 / bluray_compat=0 / constrained_intra=0 / bframes=6 / b_pyramid=2 / b_adapt=2 / b_bias=0 / direct=3 / weightb=1 / open_gop=0 / weightp=2 / keyint=250 / keyint_min=23 / scenecut=40 / intra_refresh=0 / rc_lookahead=60 / rc=2pass / mbtree=1 / bitrate=13400 / ratetol=1.0 / qcomp=0.60 / qpmin=0 / qpmax=69 / qpstep=4 / cplxblur=20.0 / qblur=0.5 / vbv_maxrate=45000 / vbv_bufsize=45000 / nal_hrd=none / ip_ratio=1.40 / aq=1:0.60
Language : English
Default : Yes
Forced : No
Audio #1
ID : 2
Format : AC-3
Format/Info : Audio Coding 3
Mode extension : CM (complete main)
Format settings, Endianness : Big
Codec ID : A_AC3
Duration : 1h 27mn
Bit rate mode : Constant
Bit rate : 192 Kbps
Channel count : 2 channels
Channel positions : Front: L R
Sampling rate : 48.0 KHz
Bit depth : 16 bits
Compression mode : Lossy
Stream size : 121 MiB (1%)
Title : AVO "Alekseev"
Language : Russian
Default : Yes
Forced : No
Audio #2
ID : 3
Format : AC-3
Format/Info : Audio Coding 3
Mode extension : CM (complete main)
Format settings, Endianness : Big
Codec ID : A_AC3
Duration : 1h 27mn
Bit rate mode : Constant
Bit rate : 192 Kbps
Channel count : 2 channels
Channel positions : Front: L R
Sampling rate : 48.0 KHz
Bit depth : 16 bits
Compression mode : Lossy
Stream size : 121 MiB (1%)
Title : English Dolby Digital Audio 2.0 @ 192 kbps
Language : English
Default : No
Forced : No
Audio #3
ID : 4
Format : AC-3
Format/Info : Audio Coding 3
Mode extension : CM (complete main)
Format settings, Endianness : Big
Codec ID : A_AC3
Duration : 1h 27mn
Bit rate mode : Constant
Bit rate : 192 Kbps
Channel count : 2 channels
Channel positions : Front: L R
Sampling rate : 48.0 KHz
Bit depth : 16 bits
Compression mode : Lossy
Stream size : 121 MiB (1%)
Title : English Dolby Digital Audio 2.0 @ 192 kbps Commentary
Language : English
Default : No
Forced : No
Text
ID : 5
Format : UTF-8
Codec ID : S_TEXT/UTF8
Codec ID/Info : UTF-8 Plain Text
Language : English
Default : No
Forced : No
Menu
00:00:00.000 : en:00:00:00.000
00:08:38.309 : en:00:08:38.309
00:11:02.954 : en:00:11:02.954
00:19:33.672 : en:00:19:33.672
00:26:54.780 : en:00:26:54.780
00:39:52.765 : en:00:39:52.765
00:53:39.842 : en:00:53:39.842
01:05:36.391 : en:01:05:36.391
01:18:30.539 : en:01:18:30.539
01:24:41.159 : en:01:24:41.159
Скриншоты
Скачать

Скачать торрент!

Как скачивать? · Что такое торрент? · Рейтинг и ограничения

Сайт не распространяет и не хранит электронные версии произведений, а лишь предоставляет доступ к создаваемому пользователями каталогу ссылок на торрент-файлы, которые содержат только списки хеш-сумм

[Профиль] [ЛС]
Показать сообщения:    
Ответить на тему

Текущее время: Сегодня 13:37

Часовой пояс: GMT + 4



Вы не можете начинать темы
Вы не можете отвечать на сообщения
Вы не можете редактировать свои сообщения
Вы не можете удалять свои сообщения
Вы не можете голосовать в опросах
Вы не можете прикреплять файлы к сообщениям
Вы не можете скачивать файлы