Концерт Бетховена (Михаил Гавронский) [1936, Музыкальный фильм, семейное кино, DVDScreener]

Ответить на тему
 
Автор Сообщение

user ®

Стаж: 7 лет 7 месяцев

Сообщений: 20008

Пост Пост: #1 от 12-Окт-2014 02:40

[Цитировать]

Концерт Бетховена
Жанр: Музыкальный фильм, семейное кино
Год выпуска: 1936
Продолжительность: 01:03:54
Режиссёр: Михаил Гавронский

В ролях: Владимир Гардин, Александр Лариков, Анатолий Королькевич, Людмила Шабалина, Исаак Шварц, Марк Тайманов, Боря Васильев
Описание: У профессора Малевича игре на скрипке обучаются два талантливых мальчика: его 11-летний сын Янка и 12-летний сын машиниста Корсака Владик. Профессор готовит своих учеников к Всесоюзному конкурсу юных дарований. Ребята все время отвлекаются от занятий то игрой в футбол, то забавами с собакой Фредди, то фехтованием на смычках. Однажды во время игры "в Чапаева", Янка повреждает руку. Разгневанный Малевич отказывается заниматься с Владиком.
Доп. информация: Фильм "Концерт Бетховена", после выхода на экраны, по популярности и кассовым сборам был наравне с "Чапаевым". Шесть недель с аншлагом шел на Бродвее и, по данным Инторгкино, принес СССР столько же валюты, сколько и "Чапаев". (с) kino-teatr.ru/
Почетный диплом выставки в Париже (Франция, 1937 г.)

Релиз: , pmv
Сэмпл: http://multi-up.com/1005448
Качество видео: DVDScreener
Формат видео: AVI
Видео: 720x544 (1.32:1), 25 fps, XviD build 73 ~2199 kbps avg, 0.22 bit/pixel
Аудио: 48 kHz, MPEG Layer 3, 1 ch, ~128.00 kbps avg
MediaInfo
Format : AVI
Format/Info : Audio Video Interleave
File size : 1.04 GiB
Duration : 1h 3mn
Overall bit rate : 2 337 Kbps
Writing library : VirtualDub build 35560/release
Video
ID : 0
Format : MPEG-4 Visual
Format profile : Advanced Simple@L5
Format settings, BVOP : 2
Format settings, QPel : No
Format settings, GMC : No warppoints
Format settings, Matrix : Default (H.263)
Codec ID : XVID
Codec ID/Hint : XviD
Duration : 1h 3mn
Bit rate : 2 200 Kbps
Width : 720 pixels
Height : 544 pixels
Display aspect ratio : 4:3
Frame rate : 25.000 fps
Color space : YUV
Chroma subsampling : 4:2:0
Bit depth : 8 bits
Scan type : Progressive
Compression mode : Lossy
Bits/(Pixel*Frame) : 0.225
Stream size : 1 006 MiB (94%)
Writing library : XviD 73
Audio
ID : 1
Format : MPEG Audio
Format version : Version 1
Format profile : Layer 3
Codec ID : 55
Codec ID/Hint : MP3
Duration : 1h 3mn
Bit rate mode : Constant
Bit rate : 128 Kbps
Channel(s) : 1 channel
Sampling rate : 48.0 KHz
Compression mode : Lossy
Delay relative to video : 1s 400ms
Stream size : 58.5 MiB (5%)
Alignment : Split accross interleaves
Interleave, duration : 40 ms (1.00 video frame)
Interleave, preload duration : 500 ms
Скриншот c названием фильма Скриншоты
Скачать

Скачать торрент!

Как скачивать? · Что такое торрент? · Рейтинг и ограничения

Сайт не распространяет и не хранит электронные версии произведений, а лишь предоставляет доступ к создаваемому пользователями каталогу ссылок на торрент-файлы, которые содержат только списки хеш-сумм

[Профиль] [ЛС]
Показать сообщения:    
Ответить на тему

Текущее время: Сегодня 09:52

Часовой пояс: GMT + 4



Вы не можете начинать темы
Вы не можете отвечать на сообщения
Вы не можете редактировать свои сообщения
Вы не можете удалять свои сообщения
Вы не можете голосовать в опросах
Вы не можете прикреплять файлы к сообщениям
Вы не можете скачивать файлы