Брачный договор / The Wedding Pact (Мэтт Берман / Matt Berman) [2014, США, Комедия, мелодрама, HDRip] MVO

Ответить на тему
 
Автор Сообщение

user ®

Стаж: 7 лет 7 месяцев

Сообщений: 20008

Пост Пост: #1 от 11-Окт-2014 11:20

[Цитировать]

Брачный договор / The Wedding Pact
Страна: США
Жанр: Комедия, мелодрама
Год выпуска: 2014
Продолжительность: 01:30:33
Перевод: Профессиональный (многоголосый закадровый)
Cубтитры: нет
Режиссер: Мэтт Берман / Matt Berman
В ролях: Хейли Дафф, Энджи Эверхарт, Крис Солдевилла, Лесли Истербрук, Элисон Бекер, Сандра Тейлор, Джойс Хайзер, Скотт Майкл Кэмпбелл, Эдди Джемисон, Келли Перин
Описание: Мич и Элизабет познакомились друг с другом еще в колледже. Там они стали хорошими друзьями. В тайне от Элизабет, Мич был в нее влюблен, но не решался об этом сказать. После колледжа Элизабет то ли в шутку, то ли всерьез, бросила фразу: «Если через 10 лет никто из нас не найдет себе пару, мы поженимся». Так случилось, что за десять лет Мич так и не решился на брак. Все еще не забыв о Элизабет он решил ее навестить…
Сэмпл: http://sendfile.su/1033623
Качество видео: HDRip
Формат видео: AVI
Видео: XviD 1.2.1, 720x400(16:9), 23,976 fps, 1850 kbps
Аудио: AC-3, 48 kHz, Front: L C R, Side: L R, LFE,6 ch, 448 kbps
MediaInfo
Общее
Полное имя : E:\Фильмы\Bra4nyj.dogovor.2014.HDRip.avi
Формат : AVI
Формат/Информация : Audio Video Interleave
Размер файла : 1,46 Гбайт
Продолжительность : 1 ч. 30 м.
Общий поток : 2307 Кбит/сек
Программа кодирования : VirtualDubMod 1.5.10.2 (build 2540/release)
Библиотека кодирования : VirtualDubMod build 2540/release
Видео
Идентификатор : 0
Формат : MPEG-4 Visual
Профиль формата : Advanced Simple@L5
Параметр BVOP формата : 2
Параметр QPel формата : Нет
Параметр GMC формата : Без точки перехода
Параметр матрицы формата : Default (MPEG)
Идентификатор кодека : XVID
Идентификатор кодека/Подсказка : XviD
Продолжительность : 1 ч. 30 м.
Битрейт : 1850 Кбит/сек
Ширина : 720 пикселей
Высота : 400 пикселей
Соотношение сторон : 16:9
Частота кадров : 23,976 кадра/сек
Цветовое пространство : YUV
Субдискретизация насыщенности : 4:2:0
Битовая глубина : 8 бит
Тип развёртки : Прогрессивная
Метод сжатия : С потерями
Бит/(Пиксели*Кадры) : 0.268
Размер потока : 1,17 Гбайт (80%)
Библиотека кодирования : XviD 1.2.1 (UTC 2008-12-04)
Аудио
Идентификатор : 1
Формат : AC-3
Формат/Информация : Audio Coding 3
Расширение режима : CM (complete main)
Параметр Endianness формата : Big
Идентификатор кодека : 2000
Продолжительность : 1 ч. 30 м.
Вид битрейта : Постоянный
Битрейт : 448 Кбит/сек
Каналы : 6 каналов
Расположение каналов : Front: L C R, Side: L R, LFE
Частота : 48,0 КГц
Битовая глубина : 16 бит
Метод сжатия : С потерями
Размер потока : 290 Мбайт (19%)
Выравнивание : Разделение по промежуткам
Продолжительность промежутка : 42 мс. (1,00 видеокадр)
Время предзагрузки промежутка : 500 мс.
Скриншот c названием фильма Скриншоты
Скачать

Скачать торрент!

Как скачивать? · Что такое торрент? · Рейтинг и ограничения

Сайт не распространяет и не хранит электронные версии произведений, а лишь предоставляет доступ к создаваемому пользователями каталогу ссылок на торрент-файлы, которые содержат только списки хеш-сумм

[Профиль] [ЛС]
Показать сообщения:    
Ответить на тему

Текущее время: Сегодня 20:38

Часовой пояс: GMT + 4



Вы не можете начинать темы
Вы не можете отвечать на сообщения
Вы не можете редактировать свои сообщения
Вы не можете удалять свои сообщения
Вы не можете голосовать в опросах
Вы не можете прикреплять файлы к сообщениям
Вы не можете скачивать файлы