Цветок дьявола (Екатерина Гроховская) [2010, Мистика, мелодрама, SATRip]

Ответить на тему
 
Автор Сообщение

user ®

Стаж: 7 лет 7 месяцев

Сообщений: 20008

Пост Пост: #1 от 11-Окт-2014 08:10

[Цитировать]

Цветок дьявола
Жанр: Мистика, мелодрама
Год выпуска: 2010
Продолжительность: 1:20:25
Режиссёр: Екатерина Гроховская
В ролях: Ольга Хохлова (II), Сергей Крапива, Олег Сукаченко, Наталья Наумова (III), Наталья Рудова, Марина Голуб, Алена Левкович, Роман Пахомов, Андрей Харитонов
Описание: Студентка колледжа Полина видит во сне загадочный цветок на воротах средневекового замка, который обладает невероятной силой притяжения. Она рассказывает о сне своей подруге, увлекающейся мистикой. Таинственным образом они находят древнюю книгу и обнаруживают в ней эстамп с изображением такого же цветка, что и во сне Полины, а также шесть загадочных пустых страниц…
На турнире по конному поло Полина знакомится с Сашей - лучшим игроком команды. Между ними завязываются романтические отношения. Но сон и книга не оставляют Полину в покое и теперь к ней во сне является таинственный Всадник. Полина разрывается между реальностью и сном, между любовью к Саше и тягой к таинственному Всаднику. Между тем на пустых страницах книги загадочным образом проявляются древние эстампы. События, изображенные на них, начинают происходить в реальной жизни Полины. Знаки ведут Полину к встрече с таинственным Всадником. Саша готов бороться за свою любовь, но для этого ему придется вступить в смертельную схватку с Силами Зла.
Доп. информация: Производство: Компания "ZGfilm" при поддержке Федерального агентства по культуре и кинематографии
Сэмпл: https://www.sendspace.com/file/p0orfa
Качество видео: SATRip
Формат видео: AVI
Видео: XviD , 720x304 (2.35:1) , 25 fps , 2386 kbps avg
Аудио: AC3 , 48 kHz , 192.00 kbps avg , 2/0 (L,R) ch
MediaInfo
Complete name Цветок дьявола 2010.avi
Format : AVI
Format/Info : Audio Video Interleave
File size : 1.45 GiB
Duration : 1h 20mn
Overall bit rate : 2 588 Kbps
Writing library : VirtualDub build 35491/release
Video
ID : 0
Format : MPEG-4 Visual
Format profile : Advanced Simple@L5
Format settings, BVOP : 2
Format settings, QPel : No
Format settings, GMC : No warppoints
Format settings, Matrix : Default (H.263)
Codec ID : XVID
Codec ID/Hint : XviD
Duration : 1h 20mn
Bit rate : 2 386 Kbps
Width : 720 pixels
Height : 304 pixels
Display aspect ratio : 2.35:1
Frame rate : 25.000 fps
Color space : YUV
Chroma subsampling : 4:2:0
Bit depth : 8 bits
Scan type : Progressive
Compression mode : Lossy
Bits/(Pixel*Frame) : 0.436
Stream size : 1.34 GiB (92%)
Writing library : XviD 1.2.1 (UTC 2008-12-04)
Audio
ID : 1
Format : AC-3
Format/Info : Audio Coding 3
Mode extension : CM (complete main)
Format settings, Endianness : Big
Codec ID : 2000
Duration : 1h 20mn
Bit rate mode : Constant
Bit rate : 192 Kbps
Channel(s) : 2 channels
Channel positions : Front: L R
Sampling rate : 48.0 KHz
Bit depth : 16 bits
Compression mode : Lossy
Stream size : 110 MiB (7%)
Alignment : Aligned on interleaves
Interleave, duration : 40 ms (1.00 video frame)
Interleave, preload duration : 512 ms
Скриншот c названием фильма Скриншоты
Скачать

Скачать торрент!

Как скачивать? · Что такое торрент? · Рейтинг и ограничения

Сайт не распространяет и не хранит электронные версии произведений, а лишь предоставляет доступ к создаваемому пользователями каталогу ссылок на торрент-файлы, которые содержат только списки хеш-сумм

[Профиль] [ЛС]
Показать сообщения:    
Ответить на тему

Текущее время: Сегодня 07:00

Часовой пояс: GMT + 4



Вы не можете начинать темы
Вы не можете отвечать на сообщения
Вы не можете редактировать свои сообщения
Вы не можете удалять свои сообщения
Вы не можете голосовать в опросах
Вы не можете прикреплять файлы к сообщениям
Вы не можете скачивать файлы