Друзья (Роман Соколов) [2012, мультфильм, притча, WEBRip-AVC]

Ответить на тему
 
Автор Сообщение

user ®

Стаж: 7 лет 7 месяцев

Сообщений: 20008

Пост Пост: #1 от 10-Окт-2014 19:10

[Цитировать]

Друзья
Страна: Россия
Жанр: мультфильм, притча
Продолжительность: 00:06:29
Год выпуска: 2012
Режиссёр: Роман Соколов
Описание: По мотивам древней песни индейцев племени Навахо.
История про очень доброго человека, который всех вокруг считает друзьями и готов последнее отдать ради спасения ближнего.
Доп. информация: Приз "Лучший дебютный фильм" на фестивале анимации в Суздале (2013)
Специальный приз жюри "За любовь к ближнему" на фестивале анимации "Золотая Рыбка" (2013)
Второе место в номинации "Мультфильм" на фестивале "Мультиматограф" (2014)
Качество: WEBRip-AVC
Формат: MP4
Видео: 1780 kbps, 1280х720 (16:9), 25.000 fps, AVC (High@L3.1)
Аудио: 192 kbps, 44.1 kHz, 2 channels, AAC (LC)
Субтитры: отсутствуют
Подробные технические данные
GeneralComplete name : Друзья (2012).mp4Format : MPEG-4Format profile : Base Media / Version 2Codec ID : mp42File size : 91.8 MiBDuration : 6mn 29sOverall bit rate mode : VariableOverall bit rate : 1 975 KbpsEncoded date : UTC 2014-09-22 01:59:13Tagged date : UTC 2014-09-22 01:59:13gsst : 0gstd : 390048gssd : B4A7DD847MH1412268678022108gshh : r7---sn-cg07lues.googlevideo.com
VideoID : 1Format : AVCFormat/Info : Advanced Video CodecFormat profile : High@L3.1Format settings, CABAC : YesFormat settings, ReFrames : 1 frameCodec ID : avc1Codec ID/Info : Advanced Video CodingDuration : 6mn 29sBit rate : 1 780 KbpsMaximum bit rate : 5 681 KbpsWidth : 1 280 pixelsHeight : 720 pixelsDisplay aspect ratio : 16:9Frame rate mode : ConstantFrame rate : 25.000 fpsColor space : YUVChroma subsampling : 4:2:0Bit depth : 8 bitsScan type : ProgressiveBits/(Pixel*Frame) : 0.077Stream size : 82.8 MiB (90%)Tagged date : UTC 2014-09-22 01:59:14
AudioID : 2Format : AACFormat/Info : Advanced Audio CodecFormat profile : LCCodec ID : 40Duration : 6mn 29sBit rate mode : VariableBit rate : 192 KbpsMaximum bit rate : 202 KbpsChannel(s) : 2 channelsChannel positions : Front: L RSampling rate : 44.1 KHzCompression mode : LossyStream size : 8.93 MiB (10%)Title : IsoMedia File Produced by Google, 5-11-2011Encoded date : UTC 2014-09-22 01:59:13Tagged date : UTC 2014-09-22 01:59:14
Скриншоты
Скачать

Скачать торрент!

Как скачивать? · Что такое торрент? · Рейтинг и ограничения

Сайт не распространяет и не хранит электронные версии произведений, а лишь предоставляет доступ к создаваемому пользователями каталогу ссылок на торрент-файлы, которые содержат только списки хеш-сумм

[Профиль] [ЛС]
Показать сообщения:    
Ответить на тему

Текущее время: Сегодня 10:00

Часовой пояс: GMT + 4



Вы не можете начинать темы
Вы не можете отвечать на сообщения
Вы не можете редактировать свои сообщения
Вы не можете удалять свои сообщения
Вы не можете голосовать в опросах
Вы не можете прикреплять файлы к сообщениям
Вы не можете скачивать файлы