Мораторий Томако / Tamako in Moratorium (Ямашьта Нобухиро / Yamashita Nobuhiro) [2013, Япония, Бытописание, Комедия, DVDRip] VO D.I.M.

Ответить на тему
 
Автор Сообщение

user ®

Стаж: 13 лет

Сообщений: 15071

Пост Пост: #1 от 10-Окт-2014 19:10

[Цитировать]

Мораторий Томако / Tamako in Moratorium
Страна: Япония
Жанр: Бытописание, Комедия
Год выпуска: 2013
Продолжительность: 1:17:23
Перевод: Одноголосый закадровый D.I.M.
Cубтитры: нет
Режиссер: Ямашьта Нобухиро / Yamashita Nobuhiro
В ролях: Ацуко Маэда / Atsuko Maeda
Рие Хагивара / Rie Hagiwara
Рюдзабуро Хаттори / Ryuzaburo Hattori
Кадзуёши Хаяши / Kazuyoshi Hayashi
Юко Хосоэ / Yuko Hosoe
Описание: Тамако окончила университет в Токио, но сейчас
живёт с отцом в родном Кофу. Она не помогает своему отцу
и не пытается найти работу. Она только и делает,
что ест и спит на протяжении всего года года.
Это сто тринадцатый фильм с моим переводом и озвучкой,
выложенный здесь.
А здесь все мои раздачи [url=http://***/forum/tracker.php?rid=1940569#results]http://***/forum/tracker.php?rid=1940569#results[/url].
Любители душевного кино могут найти для себя что-то интересное.
Сэмпл: http://multi-up.com/1005104
Качество видео: DVDRip
Формат видео: AVI
Видео: 720*416 (16:9), 23,976 fps, MPEG-4 Visual (XviD) ~ 1129 kbps avg, 0.157 bit/pixel
Аудио: MPEG Audio Layer 3, 48000Hz, stereo, 128kbps
MediaInfo
Общее
Полное имя : E:\TORENT\РАЗДАЧИ (РИПЫ)\Tamako in Moratorium.avi
Формат : AVI
Формат/Информация : Audio Video Interleave
Размер файла : 701 Мбайт
Продолжительность : 1 ч. 17 м.
Общий поток : 1266 Кбит/сек
Программа кодирования : VirtualDubModRus 1.5.10.2 (build 2542/release)
Библиотека кодирования : VirtualDubMod build 2542/release
Видео
Идентификатор : 0
Формат : MPEG-4 Visual
Профиль формата : Advanced Simple@L5
Параметр BVOP формата : Нет
Параметр QPel формата : Нет
Параметр GMC формата : Без точки перехода
Параметр матрицы формата : Выборочная
Идентификатор кодека : XVID
Идентификатор кодека/Подсказка : XviD
Продолжительность : 1 ч. 17 м.
Битрейт : 1129 Кбит/сек
Ширина : 720 пикс.
Высота : 416 пикс.
Соотношение сторон : 16:9
Частота кадров : 23,976 кадр/сек
Цветовое пространство : YUV
Подвыборка цветности : 4:2:0
Битовая глубина : 8 бит
Тип развёртки : Прогрессивная
Метод сжатия : С потерями
Бит/(Пиксели*Кадры) : 0.157
Размер потока : 625 Мбайт (89%)
Библиотека кодирования : XviD 63
Аудио
Идентификатор : 1
Формат : MPEG Audio
Версия формата : Version 1
Профиль формата : Layer 3
Режим : Joint stereo
Расширение режима : MS Stereo
Идентификатор кодека : 55
Идентификатор кодека/Подсказка : MP3
Продолжительность : 1 ч. 17 м.
Вид битрейта : Постоянный
Битрейт : 128 Кбит/сек
Канал(ы) : 2 канала(ов)
Частота : 48,0 КГц
Метод сжатия : С потерями
Размер потока : 70,9 Мбайт (10%)
Выравнивание : Соединение по промежуткам
Продолжительность промежутка : 42 мс. (1,00 видеокадр)
Время предзагрузки промежутка : 504 ms
Библиотека кодирования : LAME3.98.2UUUU…¤ЫrwH
Язык : Russian
Скриншот c названием фильма Скриншоты
Скачать

Скачать торрент! Мораторий Томако / Tamako in Moratorium (Ямашьта Нобухиро / Yamashita Nobuhiro) [2013, Япония, Бытописание, Комедия, DVDRip] VO D.I.M.

Как скачивать? · Что такое торрент? · Рейтинг и ограничения

Сайт не распространяет и не хранит электронные версии произведений, а лишь предоставляет доступ к создаваемому пользователями каталогу ссылок на торрент-файлы, которые содержат только списки хеш-сумм

[Профиль] [ЛС]
Показать сообщения:    
Ответить на тему

Текущее время: Сегодня 17:02

Часовой пояс: GMT + 4



Вы не можете начинать темы
Вы не можете отвечать на сообщения
Вы не можете редактировать свои сообщения
Вы не можете удалять свои сообщения
Вы не можете голосовать в опросах
Вы не можете прикреплять файлы к сообщениям
Вы не можете скачивать файлы