Грань будущего / Edge of Tomorrow (Даг Лайман / Doug Liman) [2014, США, Австралия, фантастика, боевик, BDRip-AVC] Dub (Rus, Ukr) AVO (Сербин, Володарский) + Original (Eng) + Subs

Ответить на тему
 
Автор Сообщение

user ®

Стаж: 7 лет 7 месяцев

Сообщений: 20008

Пост Пост: #1 от 10-Окт-2014 19:10

[Цитировать]

Грань будущего / Edge of Tomorrow
«Живи. Умри. И снова»
- Страна: США, Австралия | 3 Arts Entertainment, Translux, Village Roadshow Pictures, Viz Media, Warner Bros. Pictures
Жанр: фантастика, боевик
Год выпуска: 2014
Продолжительность: 01:53:29 час.
Перевод #1: Профессиональный (полное дублирование) - Русский
Перевод #2: Профессиональный (полное дублирование) - Украинский | отдельно
Перевод #3: Авторский (одноголосый закадровый) - Ю.Сербин | отдельно
Перевод #4: Авторский (одноголосый закадровый) - Л.Володарский | отдельно
Субтитры: Русские (Full, Forced, SDH), Украинские (Full, Forced), Английские (Full, Colored, SDH).
Оригинальная аудиодорожка: Английская
Навигация по главам: Присутствует (13 глав)
Режиссер: Даг Лайман / Doug Liman
В ролях: Том Круз (Cage), Эмили Блант (Rita), Брендан Глисон (General Brigham), Билл Пэкстон (Master Sergeant Farell), Джонас Армстронг (Skinner), Тони Вэй (Kimmel), Кик Гарри (Griff), Франц Драмех (Ford), Драгомир Мрсич (Kuntz), Шарлотта Райли (Nance), Масаёси Ханеда (Takeda)
Описание: В недалёком будущем раса инопланетян вторгается на Землю. Никакая армия в мире не может противостоять им. Майор Уильям Кейдж умирает в бою, но случается невозможное — он оказывается во временной петле. Раз за разом он попадает в один и тот же бой, сражается и умирает… снова и снова. И каждое повторяющееся сражение приближает его к разгадке того, как победить врага.

Качество: BDRip-AVC => Сэмпл | исх. Грань будущего / Edge of Tomorrow (2014) Blu-ray CEE 1080p AVC DD5.1
Формат видео: MKV
Видео: 1152x480p (2.40:1), 23,976 fps, H.264 ~2 792 kbps avg, 0.207 bit/pixel
Аудио #1: 48 kHz, AC3, 3/2 (L,C,R,l,r) + LFE ch, ~448.00 kbps avg | Профессиональный (полное дублирование) - Русский
Аудио #2: 48 kHz, AC3, 3/2 (L,C,R,l,r) + LFE ch, ~448.00 kbps avg | Профессиональный (полное дублирование) - Украинский | отдельно
Аудио #3: 48 kHz, AC3, 3/2 (L,C,R,l,r) + LFE ch, ~448.00 kbps avg | Авторский (одноголосый закадровый) - Ю.Сербин | отдельно
Аудио #4: 48 kHz, AC3, 3/2 (L,C,R,l,r) + LFE ch, ~448.00 kbps avg | Авторский (одноголосый закадровый) - Л.Володарский | отдельно
Аудио #5: 48 kHz, AC3, 3/2 (L,C,R,l,r) + LFE ch, ~448.00 kbps avg | Оригинал (английский)
Формат субтитров: softsub (SRT)
MediaInfo | log x264
log x264
raw [info]: 1152x480p 1:1 @ 24000/1001 fps (cfr)
x264 [info]: using SAR=1/1
x264 [info]: using cpu capabilities: MMX2 SSE2Fast SSSE3 SSE4.2 AVX
x264 [info]: profile High, level 4.1
x264 [info]: cabac=1 ref=13 deblock=1:-2:-1 analyse=0x3:0x133 me=umh subme=11 psy=1 fade_compensate=0.00 psy_rd=1.10:0.10 mixed_ref=1 me_range=32 chroma_me=1 trellis=2 8x8dct=1 cqm=0 deadzone=21,11 fast_pskip=0 chroma_qp_offset=-3 threads=6 lookahead_threads=1 sliced_threads=0 nr=0 decimate=1 interlaced=0 bluray_compat=0 constrained_intra=0 fgo=0 bframes=14 b_pyramid=2 b_adapt=2 b_bias=0 direct=1 weightb=1 open_gop=0 weightp=2 keyint=250 keyint_min=23 scenecut=40 intra_refresh=0 rc_lookahead=40 rc=crf mbtree=0 crf=19.4000 qcomp=0.70 qpmin=0 qpmax=69 qpstep=4 vbv_maxrate=50000 vbv_bufsize=62500 crf_max=0.0 nal_hrd=none filler=0 ip_ratio=1.30 pb_ratio=1.20 aq=3:0.90
x264 [info]: frame I:1139 Avg QP:16.69 size: 57968
x264 [info]: frame P:36765 Avg QP:18.55 size: 26798
x264 [info]: frame B:125360 Avg QP:20.48 size: 10571
x264 [info]: consecutive B-frames: 2.7% 3.6% 8.5% 25.2% 15.8% 26.6% 5.1% 4.1% 1.9% 1.2% 3.7% 1.1% 0.2% 0.2% 0.3%
x264 [info]: mb I I16..4: 8.4% 75.2% 16.4%
x264 [info]: mb P I16..4: 0.8% 15.4% 2.0% P16..4: 29.9% 36.5% 10.3% 1.6% 0.1% skip: 3.3%
x264 [info]: mb B I16..4: 0.1% 1.9% 0.3% B16..8: 38.9% 21.9% 3.2% direct: 5.2% skip:28.5% L0:42.3% L1:48.1% BI: 9.6%
x264 [info]: 8x8 transform intra:83.8% inter:65.4%
x264 [info]: coded y,uvDC,uvAC intra: 93.0% 83.7% 53.0% inter: 28.5% 18.2% 1.6%
x264 [info]: i16 v,h,dc,p: 25% 14% 5% 56%
x264 [info]: i8 v,h,dc,ddl,ddr,vr,hd,vl,hu: 6% 7% 5% 10% 16% 14% 16% 12% 14%
x264 [info]: i4 v,h,dc,ddl,ddr,vr,hd,vl,hu: 7% 8% 3% 9% 17% 15% 16% 11% 14%
x264 [info]: i8c dc,h,v,p: 36% 28% 18% 18%
x264 [info]: Weighted P-Frames: Y:5.3% UV:3.8%
x264 [info]: ref P L0: 47.6% 10.4% 16.2% 6.2% 4.8% 3.5% 3.0% 1.7% 1.6% 1.3% 1.2% 1.1% 1.1% 0.3% 0.0%
x264 [info]: ref B L0: 77.2% 10.0% 4.7% 2.4% 1.6% 1.2% 0.9% 0.6% 0.5% 0.4% 0.3% 0.2%
x264 [info]: ref B L1: 93.8% 6.2%
x264 [info]: kb/s:2791.86
encoded 163264 frames, 3.81 fps, 2791.86 kb/s
Общее
Уникальный идентификатор : 234372783347139220327965848806633651007 (0xB0528E607C7CAA0595648E1C175E3B3F)
Полное имя : Edge.of.Tomorrow.2014.BDRip-AVC.Rus.Eng.Subs.by.zOJIOtOi.mkv
Формат : Matroska
Версия формата : Version 4 / Version 2
Размер файла : 2,93 Гбайт
Продолжительность : 1 ч. 53 м.
Общий поток : 3691 Кбит/сек
Дата кодирования : UTC 2014-10-05 17:52:53
Программа кодирования : mkvmerge v7.0.0 ('Where We Going') 64bit built on Jun 9 2014 15:16:27
Библиотека кодирования : libebml v1.3.0 + libmatroska v1.4.1
DURATION : 01:45:31.242000000
NUMBER_OF_FRAMES : 1399
NUMBER_OF_BYTES : 45917
_STATISTICS_WRITING_APP : mkvmerge v7.0.0 ('Where We Going') 64bit built on Jun 9 2014 15:16:27
_STATISTICS_WRITING_DATE_UTC : 2014-10-05 17:52:53
_STATISTICS_TAGS : BPS DURATION NUMBER_OF_FRAMES NUMBER_OF_BYTES
Attachment : Yes
Видео
Идентификатор : 1
Формат : AVC
Формат/Информация : Advanced Video Codec
Профиль формата : High@L4.1
Параметр CABAC формата : Да
Параметр ReFrames формата : 13 кадров
Идентификатор кодека : V_MPEG4/ISO/AVC
Продолжительность : 1 ч. 53 м.
Битрейт : 2722 Кбит/сек
Ширина : 1152 пикселя
Высота : 480 пикселей
Соотношение сторон : 2,40:1
Режим частоты кадров : Постоянный
Частота кадров : 23,976 кадра/сек
Цветовое пространство : YUV
Субдискретизация насыщенности : 4:2:0
Битовая глубина : 8 бит
Тип развёртки : Прогрессивная
Бит/(Пиксели*Кадры) : 0.205
Размер потока : 2,16 Гбайт (74%)
Заголовок : Edge.of.Tomorrow.2014.BDRip-AVC.by.zOJIOtOi
Библиотека кодирования : x264 core 142 r2453kMod ea0ca51
Настройки программы : cabac=1 / ref=13 / deblock=1:-2:-1 / analyse=0x3:0x133 / me=umh / subme=11 / psy=1 / fade_compensate=0.00 / psy_rd=1.10:0.10 / mixed_ref=1 / me_range=32 / chroma_me=1 / trellis=2 / 8x8dct=1 / cqm=0 / deadzone=21,11 / fast_pskip=0 / chroma_qp_offset=-3 / threads=6 / lookahead_threads=1 / sliced_threads=0 / nr=0 / decimate=1 / interlaced=0 / bluray_compat=0 / constrained_intra=0 / fgo=0 / bframes=14 / b_pyramid=2 / b_adapt=2 / b_bias=0 / direct=1 / weightb=1 / open_gop=0 / weightp=2 / keyint=250 / keyint_min=23 / scenecut=40 / intra_refresh=0 / rc_lookahead=40 / rc=crf / mbtree=0 / crf=19.4000 / qcomp=0.70 / qpmin=0 / qpmax=69 / qpstep=4 / vbv_maxrate=50000 / vbv_bufsize=62500 / crf_max=0.0 / nal_hrd=none / filler=0 / ip_ratio=1.30 / pb_ratio=1.20 / aq=3:0.90
Язык : English
Default : Да
Forced : Нет
DURATION : 01:53:29.470000000
NUMBER_OF_FRAMES : 163264
NUMBER_OF_BYTES : 2376386568
_STATISTICS_WRITING_APP : mkvmerge v7.0.0 ('Where We Going') 64bit built on Jun 9 2014 15:16:27
_STATISTICS_WRITING_DATE_UTC : 2014-10-05 17:52:53
_STATISTICS_TAGS : BPS DURATION NUMBER_OF_FRAMES NUMBER_OF_BYTES
Основные цвета : BT.709
Характеристики трансфера : BT.709
Коэффициенты матрицы : BT.709
Аудио #1
Идентификатор : 2
Формат : AC-3
Формат/Информация : Audio Coding 3
Расширение режима : CM (complete main)
Параметр Endianness формата : Big
Идентификатор кодека : A_AC3
Продолжительность : 1 ч. 53 м.
Вид битрейта : Постоянный
Битрейт : 448 Кбит/сек
Каналы : 6 каналов
Расположение каналов : Front: L C R, Side: L R, LFE
Частота : 48,0 КГц
Битовая глубина : 16 бит
Метод сжатия : С потерями
Размер потока : 364 Мбайт (12%)
Заголовок : Профессиональный (полное дублирование) | DD 5.1 @ 448 kbps
Язык : Russian
Default : Да
Forced : Нет
Аудио #2
Идентификатор : 3
Формат : AC-3
Формат/Информация : Audio Coding 3
Расширение режима : CM (complete main)
Параметр Endianness формата : Big
Идентификатор кодека : A_AC3
Продолжительность : 1 ч. 53 м.
Вид битрейта : Постоянный
Битрейт : 448 Кбит/сек
Каналы : 6 каналов
Расположение каналов : Front: L C R, Side: L R, LFE
Частота : 48,0 КГц
Битовая глубина : 16 бит
Метод сжатия : С потерями
Размер потока : 364 Мбайт (12%)
Заголовок : Оригинал (английский) | DD 5.1 @ 448 kbps
Язык : English
Default : Нет
Forced : Нет
Текст #1
Идентификатор : 4
Формат : UTF-8
Идентификатор кодека : S_TEXT/UTF8
Идентификатор кодека/Информация : UTF-8 Plain Text
Заголовок : Full
Язык : Russian
Default : Нет
Forced : Нет
Текст #2
Идентификатор : 5
Формат : UTF-8
Идентификатор кодека : S_TEXT/UTF8
Идентификатор кодека/Информация : UTF-8 Plain Text
Заголовок : Forced
Язык : Russian
Default : Да
Forced : Нет
Текст #3
Идентификатор : 6
Формат : UTF-8
Идентификатор кодека : S_TEXT/UTF8
Идентификатор кодека/Информация : UTF-8 Plain Text
Заголовок : SDH
Язык : Russian
Default : Нет
Forced : Нет
Текст #4
Идентификатор : 7
Формат : UTF-8
Идентификатор кодека : S_TEXT/UTF8
Идентификатор кодека/Информация : UTF-8 Plain Text
Заголовок : Full
Язык : Ukrainian
Default : Нет
Forced : Нет
Текст #5
Идентификатор : 8
Формат : UTF-8
Идентификатор кодека : S_TEXT/UTF8
Идентификатор кодека/Информация : UTF-8 Plain Text
Заголовок : Forced
Язык : Ukrainian
Default : Нет
Forced : Нет
Текст #6
Идентификатор : 9
Формат : UTF-8
Идентификатор кодека : S_TEXT/UTF8
Идентификатор кодека/Информация : UTF-8 Plain Text
Заголовок : Full
Язык : English
Default : Нет
Forced : Нет
Текст #7
Идентификатор : 10
Формат : UTF-8
Идентификатор кодека : S_TEXT/UTF8
Идентификатор кодека/Информация : UTF-8 Plain Text
Заголовок : Color
Язык : English
Default : Нет
Forced : Нет
Текст #8
Идентификатор : 11
Формат : UTF-8
Идентификатор кодека : S_TEXT/UTF8
Идентификатор кодека/Информация : UTF-8 Plain Text
Заголовок : SDH
Язык : English
Default : Нет
Forced : Нет
Меню
00:00:00.000 : en:Chapter 01
00:10:28.168 : en:Chapter 02
00:17:39.098 : en:Chapter 03
00:24:50.196 : en:Chapter 04
00:35:57.947 : en:Chapter 05
00:46:27.284 : en:Chapter 06
00:54:34.771 : en:Chapter 07
01:04:59.561 : en:Chapter 08
01:12:53.077 : en:Chapter 09
01:23:08.899 : en:Chapter 10
01:32:34.131 : en:Chapter 11
01:42:53.583 : en:Chapter 12
01:45:46.213 : en:Chapter 13
Source vs rip by zOJIOtOi vs rip by IVAN@190282
source

rip by zOJIOtOi

[url=http://***/forum/viewtopic.php?t=4828433]rip by IVAN@190282 2.93 Gb[/url]

http://screenshotcomparison.com/comparison/93214/picture:4 [url=http://***/forum/viewtopic.php?t=4828433]http://***/forum/viewtopic.php?t=4828433[/url]
Скриншоты Релиз групп:
Скачать

Скачать торрент!

Как скачивать? · Что такое торрент? · Рейтинг и ограничения

Сайт не распространяет и не хранит электронные версии произведений, а лишь предоставляет доступ к создаваемому пользователями каталогу ссылок на торрент-файлы, которые содержат только списки хеш-сумм

[Профиль] [ЛС]
Показать сообщения:    
Ответить на тему

Текущее время: Сегодня 22:34

Часовой пояс: GMT + 4



Вы не можете начинать темы
Вы не можете отвечать на сообщения
Вы не можете редактировать свои сообщения
Вы не можете удалять свои сообщения
Вы не можете голосовать в опросах
Вы не можете прикреплять файлы к сообщениям
Вы не можете скачивать файлы