Тихая гора / The Silent Mountain (Эрнст Госснер / Ernst Gossner) [2014, Австрия, Италия, США, драма, мелодрама, приключения, военный, HDRip] VO

Ответить на тему
 
Автор Сообщение

user ®

Стаж: 7 лет 7 месяцев

Сообщений: 20008

Пост Пост: #1 от 10-Окт-2014 16:00

[Цитировать]

Тихая гора / The Silent Mountain
Страна: Австрия, Италия, США
Жанр: драма, мелодрама, приключения, военный
Год выпуска: 2014
Продолжительность: 01:38:39
Перевод: Одноголосый закадровый ИндивИдуалист
Cубтитры: нет
Оригинальная аудиодорожка: нет
Режиссер: Эрнст Госснер / Ernst Gossner
В ролях: Уильям Моусли, Евгения Костантини, Клаудия Кардинале, Вернер Даен, Коррадо Инверницци, Michael Cadeddu, Фриц Карл, Харольд Виндиш, Бриджитт Яуфенталер
Описание: Тироль. Габсбургская монархия. Австро-Венгрия. 1915 год. Андер Грубер - встречает свою первую любовь - итальянку Франческу Кальцолари.
Сестра Андера - Лиза выходит замуж за итальянца Анджело Кальцолари. Карл Грубер доволен зятем, ведь он инженер, который поможет воплотить его давнюю мечту - строительство первой канатной дороги.
И, казалось бы, жизнь идёт... но в один день зловещая новость о войне рушит всё! Вспышка фотокамеры знаменует начало войны между Италией и Австро-Венгрией. Мирное время сменяет хаос, страх, безумие, смех, предательство, боль, насилие!
Смерть, взрывы, стрельба, крики - жестокость...
Тишина становится наградой, а Любовь оказывается сильнее смерти.
Доп. информация:

Сэмпл: http://multi-up.com/1005061
Качество видео: HDRip
Формат видео: AVI
Видео: 720x304 (2.37:1), 23.976 fps, XviD MPEG-4 ~1639 kbps avg, 0.31 bit/pixel
Аудио: 48 kHz, AC3 Dolby Digital, 3/2 (L,C,R,l,r) + LFE ch, ~384 kbps
MediaInfo
General
Complete name : C:\Users\Вика\Desktop\The.Silеnt.Mountаin.2014.HDRip.avi
Format : AVI
Format/Info : Audio Video Interleave
File size : 1.40 GiB
Duration : 1h 38mn
Overall bit rate : 2 033 Kbps
Writing application : VirtualDubMod 1.5.10.2 (build 2540/release)
Writing library : VirtualDubMod build 2540/release
Video
ID : 0
Format : MPEG-4 Visual
Format profile : Advanced Simple@L5
Format settings, BVOP : Yes
Format settings, QPel : No
Format settings, GMC : No warppoints
Format settings, Matrix : Default (H.263)
Codec ID : XVID
Codec ID/Hint : XviD
Duration : 1h 38mn
Bit rate : 1 639 Kbps
Width : 720 pixels
Height : 304 pixels
Display aspect ratio : 2.35:1
Frame rate : 23.976 fps
Color space : YUV
Chroma subsampling : 4:2:0
Bit depth : 8 bits
Scan type : Progressive
Compression mode : Lossy
Bits/(Pixel*Frame) : 0.312
Stream size : 1.13 GiB (81%)
Writing library : XviD 64
Audio
ID : 1
Format : AC-3
Format/Info : Audio Coding 3
Mode extension : CM (complete main)
Format settings, Endianness : Big
Codec ID : 2000
Duration : 1h 38mn
Bit rate mode : Constant
Bit rate : 384 Kbps
Channel count : 6 channels
Channel positions : Front: L C R, Side: L R, LFE
Sampling rate : 48.0 KHz
Bit depth : 16 bits
Compression mode : Lossy
Stream size : 271 MiB (19%)
Alignment : Aligned on interleaves
Interleave, duration : 42 ms (1.00 video frame)
Interleave, preload duration : 512 ms
Скриншоты
Скачать

Скачать торрент!

Как скачивать? · Что такое торрент? · Рейтинг и ограничения

Сайт не распространяет и не хранит электронные версии произведений, а лишь предоставляет доступ к создаваемому пользователями каталогу ссылок на торрент-файлы, которые содержат только списки хеш-сумм

[Профиль] [ЛС]
Показать сообщения:    
Ответить на тему

Текущее время: Сегодня 04:18

Часовой пояс: GMT + 4



Вы не можете начинать темы
Вы не можете отвечать на сообщения
Вы не можете редактировать свои сообщения
Вы не можете удалять свои сообщения
Вы не можете голосовать в опросах
Вы не можете прикреплять файлы к сообщениям
Вы не можете скачивать файлы