Джиперс Криперс 2 / Jeepers Creepers II (Виктор Сальва / Victor Salva) [2003, США, ужасы, BDRemux 1080p] Dub (Мосфильм-мастер) + DVO + MVO (СТС) + MVO (ТНТ) + Ukr + Sub Rus, Eng + Original Eng

Ответить на тему
 
Автор Сообщение

user ®

Стаж: 7 лет 7 месяцев

Сообщений: 20008

Пост Пост: #1 от 09-Окт-2014 23:40

[Цитировать]

Джиперс Криперс 2 / Jeepers Creepers II
Страна: США
Жанр: ужасы
Год выпуска: 2003
Продолжительность: 01:44:04
-
Перевод 1: Профессиональный (дублированный) (Мосфильм-мастер)
Перевод 2: Профессиональный (двухголосый закадровый)
Перевод 3: Профессиональный (многоголосый закадровый) СТС
Перевод 4: Профессиональный (многоголосый закадровый) (ТНТ) с VHS
Cубтитры: русские (Full) и английские (Full, SDH)
Оригинальная аудиодорожка: английский
-
Режиссер: Виктор Сальва / Victor Salva
В ролях: Рэй Уайз, Джонатан Брек, Гарикай Мутамбирва, Эрик Неннингер, Ники Линн Эйкокс, Мэри Дельфино, Дайана Дилэйни, Том Госсом-мл., Билли Аарон Браун
-
Описание: Раз в 23 года зловещий крылатый монстр просыпается от долгого сна, чтобы 23 дня насыщаться человеческой плотью и страхов своих жертв. На исходе последний день его кошмарного пира, и сегодня древнее неводомое зло ждет богатый улов - спортивная команда и очаровательные болельщицы, возвращающиеся с триумфальной игры. Они одни в сломанном автобусе на пустынном шоссе, где не работают мобильные телефоны и неоткуда ждать помощи. На закате исчадие ада начнет свою кровавую вакханалию. Сможет ли его добыча дожить до утра, или неуязвимая тварь убьет объятых ужасом ребят один за другим?
-

-
Сэмпл: https://www.sendspace.com/file/rg7wuc
-
Тип релиза: BDRemux 1080p
Контейнер: MKV
Видео: 1920x1080p (16:9), 23.976 fps, 23065 Kbps
Аудио 1: русский / AC3 / 5.1 / 48 kHz / 448 kbps / 16 bit || DUB
Аудио 2: русский / AC3 / 5.1 / 48 kHz / 448 kbps / 16 bit || DVO
Аудио 3: русский / AC3 / 2.0 / 48 kHz / 256 kbps / 16 bit || MVO
Аудио 4: русский / AC3 / 2.0 / 48 kHz / 256 kbps / 16 bit || MVO
Аудио 5: украинский / AC3 / 5.1 / 48 kHz / 448 kbps / 16 bit || MVO
Аудио 6: английский / DTS-HD MA / 5.1 / 48 kHz / 4067 kbps / 24 bit || (DTS Core: 5.1, 48 kHz, 1509 kbps, 24-bit) ENG
Формат субтитров: softsub (SRT)
Главы: есть (подписаны)
Доп. информация
Скачано с Кинозала, сборка от MediaClub - пересобрано в матрешку (взято только видео и оригинальная дорожка) Остальное взято отсюда [url=http://***/forum/viewtopic.php?t=4639564]http://***/forum/viewtopic.php?t=4639564[/url] + полные английские субтитры взяты из сети, украинская дорожка взята с раздачи от HQClub с Рутора. Всем авторам спасибо.
MediaInfo
General
Unique ID : 228277986174791943635643267408952500174 (0xABBCBDAD0DD3FB9A99D983BAC99F1FCE)
Complete name : C:\Users\ALEX\Downloads\Фильмы\HD\Jeepers Creepers II.2003.BDRemux.1080p.4xRus.Ukr.Eng.Subs.Chpt.mkv
Format : Matroska
Format version : Version 4 / Version 2
File size : 21.0 GiB
Duration : 1h 44mn
Overall bit rate mode : Variable
Overall bit rate : 28.9 Mbps
Encoded date : UTC 2014-10-08 05:38:05
Writing application : mkvmerge v6.6.0 ('The Edge Of The In Between') built on Dec 1 2013 17:55:00
Writing library : libebml v1.3.0 + libmatroska v1.4.1
Video
ID : 1
Format : AVC
Format/Info : Advanced Video Codec
Format profile : High@L4.1
Format settings, CABAC : Yes
Format settings, ReFrames : 4 frames
Codec ID : V_MPEG4/ISO/AVC
Duration : 1h 44mn
Bit rate mode : Variable
Maximum bit rate : 40.0 Mbps
Width : 1 920 pixels
Height : 1 080 pixels
Display aspect ratio : 16:9
Frame rate mode : Constant
Frame rate : 23.976 fps
Color space : YUV
Chroma subsampling : 4:2:0
Bit depth : 8 bits
Scan type : Progressive
Language : English
Default : Yes
Forced : No
Color primaries : BT.709
Transfer characteristics : BT.709
Matrix coefficients : BT.709
Audio #1
ID : 2
Format : AC-3
Format/Info : Audio Coding 3
Mode extension : CM (complete main)
Format settings, Endianness : Big
Codec ID : A_AC3
Duration : 1h 44mn
Bit rate mode : Constant
Bit rate : 448 Kbps
Channel(s) : 6 channels
Channel positions : Front: L C R, Side: L R, LFE
Sampling rate : 48.0 KHz
Bit depth : 16 bits
Compression mode : Lossy
Stream size : 333 MiB (2%)
Title : DUB (Мосфильм-мастер)
Language : Russian
Default : Yes
Forced : No
Audio #2
ID : 3
Format : AC-3
Format/Info : Audio Coding 3
Mode extension : CM (complete main)
Format settings, Endianness : Big
Codec ID : A_AC3
Duration : 1h 44mn
Bit rate mode : Constant
Bit rate : 448 Kbps
Channel(s) : 6 channels
Channel positions : Front: L C R, Side: L R, LFE
Sampling rate : 48.0 KHz
Bit depth : 16 bits
Compression mode : Lossy
Stream size : 333 MiB (2%)
Title : DVO
Language : Russian
Default : No
Forced : No
Audio #3
ID : 4
Format : AC-3
Format/Info : Audio Coding 3
Mode extension : CM (complete main)
Format settings, Endianness : Big
Codec ID : A_AC3
Duration : 1h 44mn
Bit rate mode : Constant
Bit rate : 256 Kbps
Channel(s) : 2 channels
Channel positions : Front: L R
Sampling rate : 48.0 KHz
Bit depth : 16 bits
Compression mode : Lossy
Stream size : 191 MiB (1%)
Title : MVO (СТС)
Language : Russian
Default : No
Forced : No
Audio #4
ID : 5
Format : AC-3
Format/Info : Audio Coding 3
Mode extension : CM (complete main)
Format settings, Endianness : Big
Codec ID : A_AC3
Duration : 1h 44mn
Bit rate mode : Constant
Bit rate : 256 Kbps
Channel(s) : 2 channels
Channel positions : Front: L R
Sampling rate : 48.0 KHz
Bit depth : 16 bits
Compression mode : Lossy
Stream size : 191 MiB (1%)
Title : MVO (ТНТ) с VHS
Language : Russian
Default : No
Forced : No
Audio #5
ID : 6
Format : AC-3
Format/Info : Audio Coding 3
Mode extension : CM (complete main)
Format settings, Endianness : Big
Codec ID : A_AC3
Duration : 1h 44mn
Bit rate mode : Constant
Bit rate : 448 Kbps
Channel(s) : 6 channels
Channel positions : Front: L C R, Side: L R, LFE
Sampling rate : 48.0 KHz
Bit depth : 16 bits
Compression mode : Lossy
Stream size : 333 MiB (2%)
Title : MVO (ТЕТ)
Language : Ukrainian
Default : No
Forced : No
Audio #6
ID : 7
Format : DTS
Format/Info : Digital Theater Systems
Format profile : MA / Core
Mode : 16
Format settings, Endianness : Big
Codec ID : A_DTS
Duration : 1h 44mn
Bit rate mode : Variable
Bit rate : Unknown / 1 509 Kbps
Channel(s) : 6 channels
Channel positions : Front: L C R, Side: L R, LFE
Sampling rate : 48.0 KHz
Bit depth : 24 bits
Compression mode : Lossless / Lossy
Title : Original
Language : English
Default : No
Forced : No
Text #1
ID : 8
Format : UTF-8
Codec ID : S_TEXT/UTF8
Codec ID/Info : UTF-8 Plain Text
Title : Full
Language : Russian
Default : No
Forced : No
Text #2
ID : 9
Format : UTF-8
Codec ID : S_TEXT/UTF8
Codec ID/Info : UTF-8 Plain Text
Title : Full
Language : English
Default : No
Forced : No
Text #3
ID : 10
Format : UTF-8
Codec ID : S_TEXT/UTF8
Codec ID/Info : UTF-8 Plain Text
Title : SDH
Language : English
Default : No
Forced : No
Menu
00:00:00.000 : en:Scary Scarecrow
00:04:57.047 : en:The Dog Knows
00:06:16.167 : en:Day 22's Victim
00:08:02.816 : en:"Down and Disabled"
00:12:59.570 : en:Symbolic Weapon
00:15:24.382 : en:Break Before the Storm
00:18:03.582 : en:Memories of Hitchcock
00:20:42.450 : en:Futile Warning
00:23:17.021 : en:Sharp Teeth
00:26:26.877 : en:A Flare for Killing
00:28:59.988 : en:So Long, Coach
00:30:46.845 : en:"What Was It?"
00:32:29.197 : en:The Tension Rises
00:35:43.350 : en:Picking Its Prey
00:39:45.842 : en:A Dead Boy Speaks
00:42:34.719 : en:The Smell of Fear
00:45:32.396 : en:Making Contact
00:48:45.339 : en:Skewering a Beast
00:50:50.631 : en:No Exit
00:55:25.739 : en:A Wing and No Prayer
00:57:42.834 : en:He Lost His Head!
01:00:07.395 : en:Time to Split
01:05:35.431 : en:Run for Your Life!
01:09:30.958 : en:"You Can't Stop It"
01:11:22.945 : en:"Don't Make Me Go!"
01:13:01.544 : en:A Show of Power
01:16:24.872 : en:Going Creep Shooting
01:20:44.923 : en:"A Big Ugly Bug"
01:24:45.247 : en:Life-or-Death Battle
01:29:41.418 : en:"It Isn't Dead"
01:33:48.748 : en:Bat Out of Hell
01:38:02.752 : en:End Credits
Скриншоты
Скачать

Скачать торрент!

Как скачивать? · Что такое торрент? · Рейтинг и ограничения

Сайт не распространяет и не хранит электронные версии произведений, а лишь предоставляет доступ к создаваемому пользователями каталогу ссылок на торрент-файлы, которые содержат только списки хеш-сумм

[Профиль] [ЛС]
Показать сообщения:    
Ответить на тему

Текущее время: Сегодня 11:59

Часовой пояс: GMT + 4



Вы не можете начинать темы
Вы не можете отвечать на сообщения
Вы не можете редактировать свои сообщения
Вы не можете удалять свои сообщения
Вы не можете голосовать в опросах
Вы не можете прикреплять файлы к сообщениям
Вы не можете скачивать файлы