Пакт 2 / The Pact II (Даллас Ричард Халлам / Dallas Richard Hallam, Патрик Хорват / Patrick Horvath) [2014, США, ужасы, триллер, детектив, WEB-DLRip] VO

Ответить на тему
 
Автор Сообщение

user ®

Стаж: 7 лет 7 месяцев

Сообщений: 20008

Пост Пост: #1 от 09-Окт-2014 09:30

[Цитировать]

Пакт 2 / The Pact II
Страна: США
Жанр: ужасы, триллер, детектив
Год выпуска: 2014
Продолжительность: 01:35:59-Перевод: Одноголосный закадровый [RAIM]
Cубтитры: нет
Режиссер: Даллас Ричард Халлам /Dallas Richard Hallam, Патрик Хорват / Patrick Horvath-В ролях: Кейти Лотц, Камилла Ладдингтон, Скотт Майкл Фостер, Патрик Фишлер, Эми Пьетц, Хэйли Хадсон, Ники Мишо, Марк Стегер, Брэд Грюнберг, Алекс Райан-Описание: Спустя всего лишь пару недель после того, как Энни Барлоу уничтожила заразу по имени Убийца Иуда, мы знакомимся с Джун, женщиной из Лос-Анджелеса, чья спокойная жизнь превращается в настоящий кошмар. Агент ФБР Кевин Дики, расследующий дело, связанное с историей Убийцы Иуды, появляется на пороге жилища Джун, чтобы принести с собой ужасные новости — по-соседству появился маньяк-имитатор, последователь Иуды! А когда Дики показывает Джун фотографию одной из жертвы имитатора, та узнает в ней женщину, чье жестокое убийство видела в своих ночных видениях. Призраки мучат Джун, проявления потустороннего с каждым разом становятся все более ужасными, как и комшары девушки — в них она уже не просто видит убийства, но сама становится убийцей.-Сэмпл: http://sendfile.su/1032749-Качество видео: WEB-DLRip
Формат видео: AVI
Видео: XviD, 720х400, 16:9, 23,976 кадра/сек, 1422 Кбит/сек
Аудио: AC-3, 48,0 КГц, 192 Кбит/сек, 2 канала, Front: L R-MediaInfo
Формат : AVI
Формат/Информация : Audio Video Interleave
Профиль формата : OpenDML
Размер файла : 1,09 Гбайт
Продолжительность : 1 ч. 35 м.
Общий поток : 1627 Кбит/сек
Программа кодирования : Lavf54.63.104
Видео
Идентификатор : 0
Формат : xvid
Идентификатор кодека : xvid
Продолжительность : 1 ч. 35 м.
Битрейт : 1422 Кбит/сек
Ширина : 720 пикселей
Высота : 400 пикселей
Соотношение сторон : 16:9
Частота кадров : 23,976 кадра/сек
Бит/(Пиксели*Кадры) : 0.206
Размер потока : 976 Мбайт (87%)
Аудио
Идентификатор : 1
Формат : AC-3
Формат/Информация : Audio Coding 3
Расширение режима : CM (complete main)
Параметр Endianness формата : Big
Идентификатор кодека : 2000
Продолжительность : 1 ч. 35 м.
Вид битрейта : Постоянный
Битрейт : 192 Кбит/сек
Каналы : 2 канала
Расположение каналов : Front: L R
Частота : 48,0 КГц
Битовая глубина : 16 бит
Метод сжатия : С потерями
Размер потока : 132 Мбайт (12%)
Выравнивание : Соединение по промежуткам
Продолжительность промежутка : 32 мс. (0,77 видеокадр)
Скриншот c названием фильма Скриншоты
Скачать

Скачать торрент!

Как скачивать? · Что такое торрент? · Рейтинг и ограничения

Сайт не распространяет и не хранит электронные версии произведений, а лишь предоставляет доступ к создаваемому пользователями каталогу ссылок на торрент-файлы, которые содержат только списки хеш-сумм

[Профиль] [ЛС]
Показать сообщения:    
Ответить на тему

Текущее время: Сегодня 09:51

Часовой пояс: GMT + 4



Вы не можете начинать темы
Вы не можете отвечать на сообщения
Вы не можете редактировать свои сообщения
Вы не можете удалять свои сообщения
Вы не можете голосовать в опросах
Вы не можете прикреплять файлы к сообщениям
Вы не можете скачивать файлы