Катастрофа / Blue Ruin (Джереми Солнье / Jeremy Saulnier) [2013, США, Франция, триллер, BDRip 720p] AVO (Визгунов) + Sub Rus, Eng + Original Eng

Ответить на тему
 
Автор Сообщение

user ®

Стаж: 7 лет 7 месяцев

Сообщений: 20008

Пост Пост: #1 от 09-Окт-2014 00:15

[Цитировать]

Катастрофа / Blue Ruin Страна: США, Франция
Студия: Film Science, Neighborhood Watch, Paradise City, The Lab of Madness
Жанр: триллер
Год выпуска: 2013
Продолжительность: 01:30:24
Перевод: Авторский (одноголосый закадровый)С.Визгунов
Cубтитры: русские,английские(full,SDH)
Оригинальная аудиодорожка: английский
Режиссер: Джереми Солнье / Jeremy Saulnier
В ролях: Макон Блэр, Девин Рэтрей, Эми Харгривз, Кевин Колак, Ив Пламб, Дэвид В. Томпсон, , Стэйси Рок, Сидне Андерсон, Бонни Джонсон
Описание: Спокойная жизнь таинственного затворника переворачивается с ног на голову, когда он возвращается туда, где провел детство, желая отомстить. Он ввязывается в жестокую борьбу, чтобы защитить свою семью…

Тип релиза: BDRip 720p[LolHD]
Контейнер: MKV
Видео: AVC, 1280x536, 7312kbps, 23.976 fps
Аудио 1: Russian: 48 kHz, AC3, 3/2 (L,C,R,l,r) + LFE ch, ~640.00 kbps avg |С.Визгунов|
Аудио 2: English: 48 kHz, AC3, 3/2 (L,C,R,l,r) + LFE ch, ~640.00 kbps |Original|
Чаптеры:есть

x264 log
.x264 LOG
x264 [info]: frame I:837 Avg QP: 9.56 size:145458
x264 [info]: frame P:25762 Avg QP:11.12 size: 77678
x264 [info]: frame B:103448 Avg QP:13.05 size: 28446
x264 [info]: consecutive B-frames: 1.4% 1.6% 4.1% 23.6% 11.7% 37.5% 5.9% 8.0% 1.4% 0.3% 0.3% 3.5% 0.8%
x264 [info]: SSIM Mean Y:0.9913176 (20.614db) ! encoded 130047 frames, 3.29 fps, 7471.22 kb/s, duration 10:59:14.60
Доп.информация
Перевод Сергея Визгунова выполнен спонсорами ресурса e180 и участниками сервиса от HDCLUB - "Озвучивание": xRym, shtift, tambov68, hdrmv12, exact, BluRayHunter
MediaInfo
General
Unique ID : 178744001422964718436119805897128027959 (0x8678D7AC3EDB34C68B6F5D1693602737)
Complete name : D:\Blue.Ruin.2013.720p.BluRay.DD5.1.x264-Talian-.mkv
Format : Matroska
Format version : Version 2
File size : 5.53 GiB
Duration : 1h 30mn
Overall bit rate : 8 754 Kbps
Movie name : Blue.Ruin -Talian-
Encoded date : UTC 2014-09-30 17:15:46
Writing application : mkvmerge v5.7.0 ('The Whirlwind') built on Jul 8 2012 20:08:51
Writing library : libebml v1.2.3 + libmatroska v1.3.0
Video
ID : 1
Format : AVC
Format/Info : Advanced Video Codec
Format profile : High@L4.1
Format settings, CABAC : Yes
Format settings, ReFrames : 12 frames
Codec ID : V_MPEG4/ISO/AVC
Duration : 1h 30mn
Bit rate : 7 299 Kbps
Width : 1 280 pixels
Height : 536 pixels
Display aspect ratio : 2.40:1
Frame rate : 23.976 fps
Color space : YUV
Chroma subsampling : 4:2:0
Bit depth : 8 bits
Scan type : Progressive
Bits/(Pixel*Frame) : 0.444
Stream size : 4.61 GiB (83%)
Title : LolHD
Writing library : x264 core 142 r2431kMod ac76440
Encoding settings : cabac=1 / ref=12 / deblock=1:-3:-3 / analyse=0x3:0x133 / me=umh / subme=10 / psy=1 / fade_compensate=0.00 / psy_rd=1.08:0.00 / mixed_ref=1 / me_range=48 / chroma_me=1 / trellis=2 / 8x8dct=1 / cqm=0 / deadzone=21,11 / fast_pskip=0 / chroma_qp_offset=-2 / threads=6 / lookahead_threads=1 / sliced_threads=0 / nr=0 / decimate=0 / interlaced=0 / bluray_compat=0 / constrained_intra=0 / fgo=0 / bframes=12 / b_pyramid=2 / b_adapt=2 / b_bias=0 / direct=3 / weightb=1 / open_gop=0 / weightp=2 / keyint=250 / keyint_min=23 / scenecut=40 / intra_refresh=0 / rc_lookahead=60 / rc=crf / mbtree=0 / crf=13.0000 / qcomp=0.70 / qpmin=0 / qpmax=69 / qpstep=4 / vbv_maxrate=38000 / vbv_bufsize=30000 / crf_max=0.0 / nal_hrd=none / filler=0 / ip_ratio=1.40 / pb_ratio=1.30 / aq=1:0.68
Language : English
Default : Yes
Forced : No
Color primaries : BT.709-5, BT.1361, IEC 61966-2-4, SMPTE RP177
Transfer characteristics : BT.709-5, BT.1361
Matrix coefficients : BT.709-5, BT.1361, IEC 61966-2-4 709, SMPTE RP177
Audio #1
ID : 2
Format : AC-3
Format/Info : Audio Coding 3
Mode extension : CM (complete main)
Format settings, Endianness : Big
Codec ID : A_AC3
Duration : 1h 30mn
Bit rate mode : Constant
Bit rate : 640 Kbps
Channel(s) : 6 channels
Channel positions : Front: L C R, Side: L R, LFE
Sampling rate : 48.0 KHz
Bit depth : 16 bits
Compression mode : Lossy
Stream size : 414 MiB (7%)
Title : AVO-С.Визгунов
Language : Russian
Default : Yes
Forced : No
Audio #2
ID : 3
Format : AC-3
Format/Info : Audio Coding 3
Mode extension : CM (complete main)
Format settings, Endianness : Big
Codec ID : A_AC3
Duration : 1h 30mn
Bit rate mode : Constant
Bit rate : 640 Kbps
Channel(s) : 6 channels
Channel positions : Front: L C R, Side: L R, LFE
Sampling rate : 48.0 KHz
Bit depth : 16 bits
Compression mode : Lossy
Stream size : 414 MiB (7%)
Title : Original
Language : English
Default : No
Forced : No
Text #1
ID : 4
Format : UTF-8
Codec ID : S_TEXT/UTF8
Codec ID/Info : UTF-8 Plain Text
Title : Sub-Notabenoid
Language : Russian
Default : No
Forced : No
Text #2
ID : 5
Format : UTF-8
Codec ID : S_TEXT/UTF8
Codec ID/Info : UTF-8 Plain Text
Title : Sub
Language : Russian
Default : No
Forced : No
Text #3
ID : 6
Format : UTF-8
Codec ID : S_TEXT/UTF8
Codec ID/Info : UTF-8 Plain Text
Title : Sub-full
Language : English
Default : No
Forced : No
Text #4
ID : 7
Format : UTF-8
Codec ID : S_TEXT/UTF8
Codec ID/Info : UTF-8 Plain Text
Title : Sub-SDH
Language : English
Default : No
Forced : No
Menu
00:00:00.000 : en:00:00:00.000
00:04:17.257 : en:00:04:17.257
00:09:38.369 : en:00:09:38.369
00:16:02.420 : en:00:16:02.420
00:23:38.375 : en:00:23:38.375
00:32:14.766 : en:00:32:14.766
00:40:52.533 : en:00:40:52.533
00:47:29.263 : en:00:47:29.263
00:55:07.262 : en:00:55:07.262
01:03:16.835 : en:01:03:16.835
01:08:04.372 : en:01:08:04.372
01:13:17.685 : en:01:13:17.685
01:18:36.378 : en:01:18:36.378
01:26:04.159 : en:01:26:04.159
Скриншоты
Source vs Encode


Скачать

Скачать торрент!

Как скачивать? · Что такое торрент? · Рейтинг и ограничения

Сайт не распространяет и не хранит электронные версии произведений, а лишь предоставляет доступ к создаваемому пользователями каталогу ссылок на торрент-файлы, которые содержат только списки хеш-сумм

[Профиль] [ЛС]
Показать сообщения:    
Ответить на тему

Текущее время: Сегодня 20:32

Часовой пояс: GMT + 4



Вы не можете начинать темы
Вы не можете отвечать на сообщения
Вы не можете редактировать свои сообщения
Вы не можете удалять свои сообщения
Вы не можете голосовать в опросах
Вы не можете прикреплять файлы к сообщениям
Вы не можете скачивать файлы