Доброе сердце / The Good Heart (Дагюр Каури / Dagur Kári) [2009, Дания, Исландия, США, Франция, Германия, драма, BDRip 720p] MVO + Sub Rus, Eng + Original Eng

Ответить на тему
 
Автор Сообщение

user ®

Стаж: 7 лет 7 месяцев

Сообщений: 20008

Пост Пост: #1 от 09-Окт-2014 00:15

[Цитировать]

Доброе сердце / The Good Heart
Год выпуска: 2009
Страна: Дания, Исландия, США, Франция, Германия
Жанр: Драма
Продолжительность: 01:35:15
Перевод: Многоголосый закадровый - R5
Субтитры: Русские, английские-Режиссер: Дагюр Каури
В ролях: Пол Дано, Брайан Кокс, Билл Бюэлл, Boрi, Сьюзэн Бломмаерт, Элис Оливия Кларк, Сонни Браун, Стефен Хендерсон, Сет Шарп, Дэвид Мосс-Описание: Жак — скупой, нелюдимый владелец бара, который служит домом для пестрой компании пьяниц со стажем. Уже едва живой от беспробудного пьянства, Жак встречает Лукаса, бездомного юношу, махнувшего на жизнь рукой. Надеясь сохранить свое наследие и считая Лукаса достойным наследником, он берет его под свое крылышко и воспитывает по законам «клуба алкоголиков»: никаких новых клиентов, никаких отношений с клиентами, и, наконец, никаких женщин! Лукас быстро учится, но их дружба подвергается серьезному испытанию, когда на пороге бара появляется красавица Эйприл. Девушка просит убежища, и молодой человек настаивает на том, чтобы помочь ей.-Сэмпл
Качество: BDRip
Формат: MKV
Релиз от: -Видео: AVC, 8000 Кбит/сек, 1280x546, 25 кадр/сек, x264@L4.1
Аудио #1: Русский, DTS, 1509 Кбит/сек, 6 каналов, 48,0 КГц | Многоголосый закадровый, R5 |
Аудио #2: Английский, DTS, 1509 Кбит/сек, 6 каналов, 48.0 КГц | Оригинал |- -

MediaInfo
Полное имя                               : The.Good.Heart.2009.720p.BluRay.Rus.Eng.HDCLUB.mkv
Формат                                   : Matroska
Версия формата                           : Version 2
Размер файла                             : 7,32 Гбайт
Продолжительность                        : 1 ч. 35 м.
Общий поток                              : 11,0 Мбит/сек
Название фильма                          : The Good Heart (2009) - Release for HDCLUB
Дата кодирования                         : UTC 2011-09-10 13:33:04
Программа кодирования                    : mkvmerge v4.9.1 ('Ich will') сборка от Jul 11 2011 23:53:15
Библиотека кодирования                   : libebml v1.2.1 + libmatroska v1.1.1
Видео
Идентификатор                            : 1
Формат                                   : AVC
Формат/Информация                        : Advanced Video Codec
Профиль формата                          : High@L4.1
Параметр CABAC формата                   : Да
Параметр ReFrames формата                : 11 кадров
Идентификатор кодека                     : V_MPEG4/ISO/AVC
Продолжительность                        : 1 ч. 35 м.
Битрейт                                  : 8000 Кбит/сек
Ширина                                   : 1280 пикселей
Высота                                   : 546 пикселей
Соотношение сторон                       : 2,35:1
Режим частоты кадров                     : Постоянный
Частота кадров                           : 25,000 кадров/сек
Цветовое пространство                    : YUV
Субдискретизация насыщенности            : 4:2:0
Битовая глубина                          : 8 бит
Тип развёртки                            : Прогрессивная
Бит/(Пиксели*Кадры)                      : 0.458
Размер потока                            : 5,17 Гбайт (71%)
Заголовок                                : The Good Heart (2009) - Release for HDCLUB
Библиотека кодирования                   : x264 core 114 r1924 08d04a4
Настройки программы                      : cabac=1 / ref=11 / deblock=1:-3:-3 / analyse=0x3:0x133 / me=umh / subme=10 / psy=1 / psy_rd=1.10:0.00 / mixed_ref=1 / me_range=64 / chroma_me=1 / trellis=2 / 8x8dct=1 / cqm=0 / deadzone=21,11 / fast_pskip=0 / chroma_qp_offset=-2 / threads=12 / sliced_threads=0 / nr=0 / decimate=0 / interlaced=0 / constrained_intra=0 / bframes=9 / b_pyramid=2 / b_adapt=2 / b_bias=0 / direct=3 / weightb=1 / open_gop=0 / weightp=2 / keyint=250 / keyint_min=25 / scenecut=40 / intra_refresh=0 / rc_lookahead=40 / rc=2pass / mbtree=0 / bitrate=8000 / ratetol=1.0 / qcomp=0.60 / qpmin=0 / qpmax=69 / qpstep=4 / cplxblur=20.0 / qblur=0.5 / vbv_maxrate=50000 / vbv_bufsize=62500 / nal_hrd=none / ip_ratio=1.40 / pb_ratio=1.30 / aq=1:0.80
Язык                                     : English
Default                                  : Да
Forced                                   : Нет
Основные цвета                           : BT.709
Характеристики трансфера                 : BT.709
Коэффициенты матрицы                     : BT.709
Аудио #1
Идентификатор                            : 2
Формат                                   : DTS
Формат/Информация                        : Digital Theater Systems
Режим                                    : 16
Параметр Endianness формата              : Big
Идентификатор кодека                     : A_DTS
Продолжительность                        : 1 ч. 35 м.
Вид битрейта                             : Постоянный
Битрейт                                  : 1509 Кбит/сек
Каналы                                   : 6 каналов
Расположение каналов                     : Front: L C R, Side: L R, LFE
Частота                                  : 48,0 КГц
Битовая глубина                          : 24 бит
Метод сжатия                             : С потерями
Размер потока                            : 1,00 Гбайт (14%)
Заголовок                                : DTS 5.1ch 1510 kbps - Многоголосый, R5
Язык                                     : Russian
Default                                  : Да
Forced                                   : Нет
Аудио #2
Идентификатор                            : 3
Формат                                   : DTS
Формат/Информация                        : Digital Theater Systems
Режим                                    : 16
Параметр Endianness формата              : Big
Идентификатор кодека                     : A_DTS
Продолжительность                        : 1 ч. 35 м.
Вид битрейта                             : Постоянный
Битрейт                                  : 1509 Кбит/сек
Каналы                                   : 6 каналов
Расположение каналов                     : Front: L C R, Side: L R, LFE
Частота                                  : 48,0 КГц
Битовая глубина                          : 24 бит
Метод сжатия                             : С потерями
Размер потока                            : 1,00 Гбайт (14%)
Заголовок                                : DTS 5.1ch 1510 kbps
Язык                                     : English
Default                                  : Нет
Forced                                   : Нет
Текст #1
Идентификатор                            : 4
Формат                                   : UTF-8
Идентификатор кодека                     : S_TEXT/UTF8
Идентификатор кодека/Информация          : UTF-8 Plain Text
Язык                                     : Russian
Default                                  : Нет
Forced                                   : Нет
Текст #2
Идентификатор                            : 5
Формат                                   : UTF-8
Идентификатор кодека                     : S_TEXT/UTF8
Идентификатор кодека/Информация          : UTF-8 Plain Text
Язык                                     : English
Default                                  : Нет
Forced                                   : Нет
Меню
00:00:00.000                             : en:Chapter 1
00:07:31.520                             : en:Chapter 2
00:15:09.120                             : en:Chapter 3
00:21:15.280                             : en:Chapter 4
00:31:36.200                             : en:Chapter 5
00:39:04.320                             : en:Chapter 6
00:46:34.280                             : en:Chapter 7
00:55:37.880                             : en:Chapter 8
01:02:10.120                             : en:Chapter 9
01:08:07.840                             : en:Chapter 10
01:17:47.360                             : en:Chapter 11
01:24:44.760                             : en:Chapter 12
01:29:04.840                             : en:Chapter 13
Скриншоты
Скачать

Скачать торрент!

Как скачивать? · Что такое торрент? · Рейтинг и ограничения

Сайт не распространяет и не хранит электронные версии произведений, а лишь предоставляет доступ к создаваемому пользователями каталогу ссылок на торрент-файлы, которые содержат только списки хеш-сумм

[Профиль] [ЛС]
Показать сообщения:    
Ответить на тему

Текущее время: Сегодня 01:49

Часовой пояс: GMT + 4



Вы не можете начинать темы
Вы не можете отвечать на сообщения
Вы не можете редактировать свои сообщения
Вы не можете удалять свои сообщения
Вы не можете голосовать в опросах
Вы не можете прикреплять файлы к сообщениям
Вы не можете скачивать файлы