Ничего, кроме правды / Nothing But the Truth (Род Лури / Rod Lurie) [2008, США, триллер, драма, BDRip 720p] DVO (Интерфильм) + Sub Eng + Original Eng

Ответить на тему
 
Автор Сообщение

user ®

Стаж: 7 лет 7 месяцев

Сообщений: 20008

Пост Пост: #1 от 09-Окт-2014 00:15

[Цитировать]

Ничего, кроме правды / Nothing But the Truth
Страна: США
Жанр: триллер, драма
Год выпуска: 2008
Продолжительность: 01:47:02
Перевод: Любительский (двухголосый закадровый) Интерфильм
Cубтитры: английские [SDH]
Оригинальная аудиодорожка: английский
-
Режиссер: Род Лури / Rod Lurie
В ролях: Кейт Бекинсейл, Мэтт Диллон, Вера Фармига, Дэвид Швиммер, Анджела Бассетт, Ноа Уайли, Алан Алда, Кортни Б. Вэнс, Флойд Абрамс, Престон Бэйли
-
Описание: Журналистка, рассекретившая в своих статьях агента ЦРУ, под угрозой тюрёмного заключения, отказывается раскрывать источник информации, сообщивший ей имя этого агента.

Тип релиза: BDRip 720p
Контейнер: MKV
Видео: H.264 / NTSC 16:9 / 1280x720 (1,78:1) / 6181 kbps / 23,976 fps / 0.272 bit/pixel / High@L4.1
Аудио 1: Russian / AC3 / 48 kHz / 5.1 Ch / 448 kbps / 16 bit / DVO
Аудио 2: English / DTS / 48 kHz / 5.1 Ch / 1509 kbps / 24 bit / Original
Формат субтитров: softsub (SRT)
Навигация по главам: есть

Сэмпл MediaInfo
Общее
Уникальный идентификатор : 204071808554216229650582412635670556428 (0x9986CCFA04C8C618B0B1D389E6DFAF0C)
Полное имя : D:\Nothing But the Truth.2008.BDRip.720p.mkv
Формат : Matroska
Версия формата : Version 4 / Version 2
Размер файла : 6,08 Гбайт
Продолжительность : 1 ч. 47 м.
Общий поток : 8139 Кбит/сек
Дата кодирования : UTC 2014-10-07 01:28:40
Программа кодирования : mkvmerge v7.2.0 ('On Every Street') 64bit built on Sep 13 2014 15:52:10
Библиотека кодирования : libebml v1.3.0 + libmatroska v1.4.1
DURATION : 01:44:03.403000000
NUMBER_OF_FRAMES : 1745
NUMBER_OF_BYTES : 71473
_STATISTICS_WRITING_APP : mkvmerge v7.2.0 ('On Every Street') 64bit built on Sep 13 2014 15:52:10
_STATISTICS_WRITING_DATE_UTC : 2014-10-07 01:28:40
_STATISTICS_TAGS : BPS DURATION NUMBER_OF_FRAMES NUMBER_OF_BYTES
Видео
Идентификатор : 1
Формат : AVC
Формат/Информация : Advanced Video Codec
Профиль формата : High@L4.1
Параметр CABAC формата : Да
Параметр ReFrames формата : 9 кадров
Идентификатор кодека : V_MPEG4/ISO/AVC
Продолжительность : 1 ч. 47 м.
Битрейт : 6020 Кбит/сек
Ширина : 1280 пикселей
Высота : 720 пикселей
Соотношение сторон : 16:9
Режим частоты кадров : Постоянный
Частота кадров : 23,976 кадра/сек
Цветовое пространство : YUV
Субдискретизация насыщенности : 4:2:0
Битовая глубина : 8 бит
Тип развёртки : Прогрессивная
Бит/(Пиксели*Кадры) : 0.272
Размер потока : 4,50 Гбайт (74%)
Библиотека кодирования : x264 core 142 r2409kMod d6b4e63
Настройки программы : cabac=1 / ref=9 / deblock=1:-3:-3 / analyse=0x3:0x133 / me=umh / subme=11 / psy=1 / fade_compensate=0.00 / psy_rd=1.00:0.00 / mixed_ref=1 / me_range=24 / chroma_me=1 / trellis=2 / 8x8dct=1 / cqm=0 / deadzone=21,11 / fast_pskip=0 / chroma_qp_offset=-2 / threads=6 / lookahead_threads=1 / sliced_threads=0 / nr=0 / decimate=0 / interlaced=0 / bluray_compat=0 / constrained_intra=0 / fgo=0 / bframes=6 / b_pyramid=2 / b_adapt=2 / b_bias=0 / direct=3 / weightb=1 / open_gop=0 / weightp=2 / keyint=250 / keyint_min=24 / scenecut=40 / intra_refresh=0 / rc=crf / mbtree=0 / crf=19.5000 / qcomp=0.60 / qpmin=0 / qpmax=69 / qpstep=4 / ip_ratio=1.40 / pb_ratio=1.30 / aq=2:0.80
Язык : English
Default : Да
Forced : Нет
Коэффициенты матрицы : BT.709
DURATION : 01:47:00.456000000
NUMBER_OF_FRAMES : 153937
NUMBER_OF_BYTES : 4960485510
_STATISTICS_WRITING_APP : mkvmerge v7.2.0 ('On Every Street') 64bit built on Sep 13 2014 15:52:10
_STATISTICS_WRITING_DATE_UTC : 2014-10-07 01:28:40
_STATISTICS_TAGS : BPS DURATION NUMBER_OF_FRAMES NUMBER_OF_BYTES
Аудио #1
Идентификатор : 2
Формат : AC-3
Формат/Информация : Audio Coding 3
Расширение режима : CM (complete main)
Параметр Endianness формата : Big
Идентификатор кодека : A_AC3
Продолжительность : 1 ч. 47 м.
Вид битрейта : Постоянный
Битрейт : 448 Кбит/сек
Каналы : 6 каналов
Расположение каналов : Front: L C R, Side: L R, LFE
Частота : 48,0 КГц
Битовая глубина : 16 бит
Метод сжатия : С потерями
Размер потока : 343 Мбайт (6%)
Заголовок : DVO / Интерфильм
Язык : Russian
Default : Да
Forced : Нет
Аудио #2
Идентификатор : 3
Формат : DTS
Формат/Информация : Digital Theater Systems
Режим : 16
Параметр Endianness формата : Big
Идентификатор кодека : A_DTS
Продолжительность : 1 ч. 47 м.
Вид битрейта : Постоянный
Битрейт : 1509 Кбит/сек
Каналы : 6 каналов
Расположение каналов : Front: L C R, Side: L R, LFE
Частота : 48,0 КГц
Битовая глубина : 24 бит
Метод сжатия : С потерями
Размер потока : 1,13 Гбайт (19%)
Заголовок : Original
Язык : English
Default : Нет
Forced : Нет
Текст
Идентификатор : 4
Формат : UTF-8
Идентификатор кодека : S_TEXT/UTF8
Идентификатор кодека/Информация : UTF-8 Plain Text
Заголовок : Original / SDH
Язык : English
Default : Нет
Forced : Нет
Меню
00:00:00.000 : en:00:00:00.000
00:15:01.692 : en:00:15:01.692
00:31:22.547 : en:00:31:22.547
00:47:54.371 : en:00:47:54.371
01:08:26.519 : en:01:08:26.519
01:29:22.148 : en:01:29:22.148
Скриншоты
Скачать

Скачать торрент!

Как скачивать? · Что такое торрент? · Рейтинг и ограничения

Сайт не распространяет и не хранит электронные версии произведений, а лишь предоставляет доступ к создаваемому пользователями каталогу ссылок на торрент-файлы, которые содержат только списки хеш-сумм

[Профиль] [ЛС]
Показать сообщения:    
Ответить на тему

Текущее время: Сегодня 17:42

Часовой пояс: GMT + 4



Вы не можете начинать темы
Вы не можете отвечать на сообщения
Вы не можете редактировать свои сообщения
Вы не можете удалять свои сообщения
Вы не можете голосовать в опросах
Вы не можете прикреплять файлы к сообщениям
Вы не можете скачивать файлы