Без единой улики / Without a Clue (Том Эберхардт / Thom Eberhardt) [1988, Великобритания, комедия, криминал, детектив, BDRip 720p] Dub + MVO + 2x DVO + 2x AVO + Original Eng + Sub Rus, Eng

Ответить на тему
 
Автор Сообщение

user ®

Стаж: 7 лет 7 месяцев

Сообщений: 20008

Пост Пост: #1 от 09-Окт-2014 00:15

[Цитировать]

Без единой улики / Without a Clue
Страна: Великобритания
Жанр: комедия, криминал, детектив
Год выпуска: 1988
Продолжительность: 01:46:42
Перевод 1: Профессиональный (дублированный)
Перевод 2: Профессиональный (многоголосый закадровый) Позитив
Перевод 3: Профессиональный (двухголосый закадровый) ТВ-6
Перевод 4: Профессиональный (двухголосый закадровый) Белявский
Перевод 5: Авторский (одноголосый закадровый) Юрий Живов
Перевод 6: Авторский (одноголосый закадровый) Леонид Володарский
Cубтитры: русские, английские, комбинированные русские+английские
Оригинальная аудиодорожка: английский
Режиссер: Том Эберхардт / Thom Eberhardt
В ролях: Майкл Кейн, Бен Кингсли, Джеффри Джонс, Лизетт Энтони, Пол Фримен, Найджел Девенпорт, Пэт Кин, Питер Кук, Тим Киллик, Мэттью Сэвадж
Описание: Однажды, приблизительно за девять лет до описываемых в фильме событий, доктор Ватсон лечил инспектора Скотланд Ярда. Говорил он с пациентом не только о его болезни, но и о его работе, и, выслушав факты одного очень запутанного дела об убийстве и сопоставив их, помог найти убийцу. В то время Ватсон ждал назначения в штат одного очень консервативного медицинского колледжа, руководство которого не одобрило бы его дедуктивное хобби, поэтому он приписал раскрытие преступления вымышленному лицу, несуществующему детективу — Шерлоку Холмсу. Должности Ватсон так и не получил, а Скотланд Ярд не забывал про него и его таинственного друга-детектива, постоянно обращаясь к их (точнее, к его — Ватсона) помощи в раскрытии преступлений. На досуге же Ватсон стал писать детективные рассказы о якобы их с Холмсом приключениях, которые охотно публиковал журнал «Стрэнд». И вот настал момент, когда восторженная публика потребовала предъявить ей живого Шерлока Холмса. Ватсону не оставалось ничего другого, как нанять актера Реджинальда Кинкейда для исполнения роли великого сыщика, раскрывающего все преступления, которые на самом деле раскрывал сам Ватсон. Сам же доктор теперь был при живом гении кем-то вроде помощника. Тиражи «Стрэнд» росли, популярность и слава Шерлока Холмса множилась день ото дня, но вся беда была в том, что Реджинальд Кинкейд был не только бездарным актером, но, в противоположность своему амплуа — Холмсу, жутким бабником, алкоголиком и напыщенным остолопом, не способным даже на самое элементарное умозаключение.
Сэмпл: https://yadi.sk/i/7I-ab14fbrKmZ
Тип релиза: BDRip 720p (источник видео: Without.a.Clue.1988.720p.BluRay.X264-AMIABLE.mkv)
Контейнер: MKV
Видео: AVC, 1280x720, 16:9, 5820 kbps, 24 fps
Аудио 1: RUS, AC3, 2.0, 48 kHz, 16 bit, 192 kbps (Дубляж)
Аудио 2: RUS, AC3, 2.0, 48 kHz, 16 bit, 192 kbps (MVO Позитив)
Аудио 3: RUS, AC3, 2.0, 48 kHz, 16 bit, 192 kbps (DVO ТВ-6)
Аудио 4: RUS, AC3, 2.0, 48 kHz, 16 bit, 192 kbps (DVO Белявский)
Аудио 5: RUS, AC3, 2.0, 48 kHz, 16 bit, 192 kbps (AVO Живов)
Аудио 6: RUS, AC3, 2.0, 48 kHz, 16 bit, 192 kbps (AVO Володарский)
Аудио 7: ENG, AC3, 2.0, 48 kHz, 16 bit, 192 kbps
Формат субтитров: softsub (SRT)
MediaInfo
General
Unique ID : 227456249472543463778316628570215260790 (0xAB1E7AEDB6A0C7C4B9562506A5B3A276)
Complete name : Без единой улики [1988] 720p.mkv
Format : Matroska
Format version : Version 4 / Version 2
File size : 5.34 GiB
Duration : 1h 46mn
Overall bit rate : 7 166 Kbps
Encoded date : UTC 2014-10-07 01:57:54
Writing application : mkvmerge v7.2.0 ('On Every Street') 64bit built on Sep 13 2014 15:52:10
Writing library : libebml v1.3.0 + libmatroska v1.4.1
DURATION : 01:43:09.710000000
NUMBER_OF_FRAMES : 1271
NUMBER_OF_BYTES : 138049
_STATISTICS_WRITING_APP : mkvmerge v7.2.0 ('On Every Street') 64bit built on Sep 13 2014 15:52:10
_STATISTICS_WRITING_DATE_UTC : 2014-10-07 01:57:54
_STATISTICS_TAGS : BPS DURATION NUMBER_OF_FRAMES NUMBER_OF_BYTES
Video
ID : 1
Format : AVC
Format/Info : Advanced Video Codec
Format profile : High@L4.1
Format settings, CABAC : Yes
Format settings, ReFrames : 5 frames
Codec ID : V_MPEG4/ISO/AVC
Duration : 1h 46mn
Bit rate : 5 820 Kbps
Width : 1 280 pixels
Height : 720 pixels
Display aspect ratio : 16:9
Frame rate mode : Constant
Frame rate : 24.000 fps
Color space : YUV
Chroma subsampling : 4:2:0
Bit depth : 8 bits
Scan type : Progressive
Bits/(Pixel*Frame) : 0.263
Stream size : 4.23 GiB (79%)
Writing library : x264 core 142 r2453 ea0ca51
Encoding settings : cabac=1 / ref=5 / deblock=1:-3:-3 / analyse=0x3:0x113 / me=umh / subme=8 / psy=1 / psy_rd=1.00:0.00 / mixed_ref=1 / me_range=16 / chroma_me=1 / trellis=1 / 8x8dct=1 / cqm=0 / deadzone=21,11 / fast_pskip=1 / chroma_qp_offset=-2 / threads=18 / lookahead_threads=3 / sliced_threads=0 / nr=0 / decimate=1 / interlaced=0 / bluray_compat=0 / constrained_intra=0 / bframes=3 / b_pyramid=2 / b_adapt=2 / b_bias=0 / direct=3 / weightb=1 / open_gop=0 / weightp=2 / keyint=240 / keyint_min=24 / scenecut=40 / intra_refresh=0 / rc_lookahead=50 / rc=2pass / mbtree=1 / bitrate=5820 / ratetol=1.0 / qcomp=0.60 / qpmin=0 / qpmax=69 / qpstep=4 / cplxblur=20.0 / qblur=0.5 / ip_ratio=1.40 / aq=1:1.00
Language : English
Default : Yes
Forced : No
DURATION : 01:46:42.334000000
NUMBER_OF_FRAMES : 153656
NUMBER_OF_BYTES : 4655935196
_STATISTICS_WRITING_APP : mkvmerge v7.2.0 ('On Every Street') 64bit built on Sep 13 2014 15:52:10
_STATISTICS_WRITING_DATE_UTC : 2014-10-07 01:57:54
_STATISTICS_TAGS : BPS DURATION NUMBER_OF_FRAMES NUMBER_OF_BYTES
Audio #1
ID : 2
Format : AC-3
Format/Info : Audio Coding 3
Mode extension : CM (complete main)
Format settings, Endianness : Big
Codec ID : A_AC3
Duration : 1h 46mn
Bit rate mode : Constant
Bit rate : 192 Kbps
Channel(s) : 2 channels
Channel positions : Front: L R
Sampling rate : 48.0 KHz
Bit depth : 16 bits
Compression mode : Lossy
Stream size : 147 MiB (3%)
Title : Dub
Language : Russian
Default : Yes
Forced : No
Audio #2
ID : 3
Format : AC-3
Format/Info : Audio Coding 3
Mode extension : CM (complete main)
Format settings, Endianness : Big
Codec ID : A_AC3
Duration : 1h 46mn
Bit rate mode : Constant
Bit rate : 192 Kbps
Channel(s) : 2 channels
Channel positions : Front: L R
Sampling rate : 48.0 KHz
Bit depth : 16 bits
Compression mode : Lossy
Stream size : 147 MiB (3%)
Title : MVO (Позитив)
Language : Russian
Default : No
Forced : No
Audio #3
ID : 4
Format : AC-3
Format/Info : Audio Coding 3
Mode extension : CM (complete main)
Format settings, Endianness : Big
Codec ID : A_AC3
Duration : 1h 46mn
Bit rate mode : Constant
Bit rate : 192 Kbps
Channel(s) : 2 channels
Channel positions : Front: L R
Sampling rate : 48.0 KHz
Bit depth : 16 bits
Compression mode : Lossy
Stream size : 147 MiB (3%)
Title : DVO (ТВ-6)
Language : Russian
Default : No
Forced : No
Audio #4
ID : 5
Format : AC-3
Format/Info : Audio Coding 3
Mode extension : CM (complete main)
Format settings, Endianness : Big
Codec ID : A_AC3
Duration : 1h 46mn
Bit rate mode : Constant
Bit rate : 192 Kbps
Channel(s) : 2 channels
Channel positions : Front: L R
Sampling rate : 48.0 KHz
Bit depth : 16 bits
Compression mode : Lossy
Stream size : 147 MiB (3%)
Title : DVO (Белявский)
Language : Russian
Default : No
Forced : No
Audio #5
ID : 6
Format : AC-3
Format/Info : Audio Coding 3
Mode extension : CM (complete main)
Format settings, Endianness : Big
Codec ID : A_AC3
Duration : 1h 46mn
Bit rate mode : Constant
Bit rate : 192 Kbps
Channel(s) : 2 channels
Channel positions : Front: L R
Sampling rate : 48.0 KHz
Bit depth : 16 bits
Compression mode : Lossy
Stream size : 147 MiB (3%)
Title : AVO (Живов)
Language : Russian
Default : No
Forced : No
Audio #6
ID : 7
Format : AC-3
Format/Info : Audio Coding 3
Mode extension : CM (complete main)
Format settings, Endianness : Big
Codec ID : A_AC3
Duration : 1h 46mn
Bit rate mode : Constant
Bit rate : 192 Kbps
Channel(s) : 2 channels
Channel positions : Front: L R
Sampling rate : 48.0 KHz
Bit depth : 16 bits
Compression mode : Lossy
Stream size : 147 MiB (3%)
Title : AVO (Володарский)
Language : Russian
Default : No
Forced : No
Audio #7
ID : 8
Format : AC-3
Format/Info : Audio Coding 3
Mode extension : CM (complete main)
Format settings, Endianness : Big
Codec ID : A_AC3
Duration : 1h 46mn
Bit rate mode : Constant
Bit rate : 192 Kbps
Channel(s) : 2 channels
Channel positions : Front: L R
Sampling rate : 48.0 KHz
Bit depth : 16 bits
Compression mode : Lossy
Stream size : 147 MiB (3%)
Title : Eng
Language : English
Default : No
Forced : No
Text #1
ID : 9
Format : UTF-8
Codec ID : S_TEXT/UTF8
Codec ID/Info : UTF-8 Plain Text
Title : Rus
Language : Russian
Default : No
Forced : No
Text #2
ID : 10
Format : UTF-8
Codec ID : S_TEXT/UTF8
Codec ID/Info : UTF-8 Plain Text
Title : Rus+Eng
Language : Russian
Default : No
Forced : No
Text #3
ID : 11
Format : UTF-8
Codec ID : S_TEXT/UTF8
Codec ID/Info : UTF-8 Plain Text
Title : Eng
Language : English
Default : No
Forced : No
Menu
00:00:00.000 : ru:01
00:04:58.000 : ru:02
00:12:20.000 : ru:03
00:20:15.000 : ru:04
00:28:05.000 : ru:05
00:36:06.000 : ru:06
00:43:07.000 : ru:07
00:50:03.000 : ru:08
00:58:57.000 : ru:09
01:06:35.000 : ru:10
01:12:48.000 : ru:11
01:21:02.000 : ru:12
01:27:07.000 : ru:13
01:33:24.000 : ru:14
01:41:54.000 : ru:15
01:44:05.000 : ru:16
Скриншоты
Скачать

Скачать торрент!

Как скачивать? · Что такое торрент? · Рейтинг и ограничения

Сайт не распространяет и не хранит электронные версии произведений, а лишь предоставляет доступ к создаваемому пользователями каталогу ссылок на торрент-файлы, которые содержат только списки хеш-сумм

[Профиль] [ЛС]
Показать сообщения:    
Ответить на тему

Текущее время: Сегодня 20:22

Часовой пояс: GMT + 4



Вы не можете начинать темы
Вы не можете отвечать на сообщения
Вы не можете редактировать свои сообщения
Вы не можете удалять свои сообщения
Вы не можете голосовать в опросах
Вы не можете прикреплять файлы к сообщениям
Вы не можете скачивать файлы