Убийцы / Killers (Кимо Стамбол / Kimo Stamboel, Тимо Тьяджанто / Timo Tjahjanto) [2014, Индонезия, Япония, боевик, триллер, драма, криминал, BDRip-AVC] DVO (DeadSno & den904) + Original (Jpn) + Sub (Eng)

Ответить на тему
 
Автор Сообщение

user ®

Стаж: 13 лет

Сообщений: 15071

Пост Пост: #1 от 08-Окт-2014 17:55

[Цитировать]

Убийцы / Killers
Страна: Индонезия, Япония
Жанр: боевик, триллер, драма, криминал
Год выпуска: 2014
Продолжительность: 02:17:58
Перевод: Любительский (двухголосый закадровый) - DeadSno & den904, перевод - Ох! Колобок INC.
Оригинальная аудиодорожка: японский / бахаса (индонезийский) / английский
Cубтитры: английские (полные и SDH)-Режиссер: Кимо Стамбол / Kimo Stamboel, Тимо Тьяджанто / Timo Tjahjanto
В ролях: Кадзуки Китамура (Nomura), Ока Антара (Bayu), Рин Таканаси (Hisae), Луна Майя (Dina), Рэй Сахетапи (Dharma), Эпи Куснандар (Robert), Мей Курокава (Midori), Стив Жан (Ahmad)-Описание: Японец Номура производит впечатление милого и обаятельного человека. По крайней мере, таким его считает Хиса, молодая продавщица из магазина цветов, с которой познакомился Номура. Несчастная девушка не подозревает, что на самом деле он - садист, извращенец и психопат, для которого жестокие убийства - как бальзам на душу.
Байю - индонезийский журналист, живущий в Джакарте. Так сложилось, что неудачи в работе и крах семейной жизни сделали его убийцей поневоле. Теперь Байю хочет убить всех, кто испортил ему жизнь.
Странным образом судьбы Номуры и Байю переплетаются. И теперь столкновение двух убийц неизбежно...-СЭМПЛ
Тип релиза: BDRip-AVC
Исходник: Killers 2014 1080p Blu-ray AVC DTS-HD MA 5.1-ADC
Контейнер: MKV
Видео: 1152x490p / 23.976 fps / 2.35:1 / High Profile 4.1 / AVC / ~ 2128 Kbps
Аудио 1: AC3 / 448 Kbps / 5.1 / 48 kHz / Russian / DVO - DeadSno & den904
Аудио 2: AC3 / 448 Kbps / 5.1 / 48 kHz / Japanese / original
Формат субтитров: softsub (SRT)-IMDB * КиноПоиск
Внимание: Русская озвучка содержит ненормативную лексику!
MediaInfo / x264 log
General
Complete name : Killers.2014.BDRip-AVC.DVO.mkv
Format : Matroska
Format version : Version 2
File size : 2.92 GiB
Duration : 2h 17mn
Overall bit rate : 3 025 Kbps
Encoded date : UTC 2014-10-08 09:33:46
Writing application : mkvmerge v5.8.0 ('No Sleep / Pillow') built on Sep 2 2012 15:37:04
Writing library : libebml v1.2.3 + libmatroska v1.3.0
Video
ID : 1
Format : AVC
Format/Info : Advanced Video Codec
Format profile : High@L4.1
Format settings, CABAC : Yes
Format settings, ReFrames : 12 frames
Codec ID : V_MPEG4/ISO/AVC
Duration : 2h 17mn
Bit rate : 2 128 Kbps
Width : 1 152 pixels
Height : 490 pixels
Display aspect ratio : 2.35:1
Frame rate mode : Constant
Frame rate : 23.976 fps
Color space : YUV
Chroma subsampling : 4:2:0
Bit depth : 8 bits
Scan type : Progressive
Bits/(Pixel*Frame) : 0.157
Stream size : 1.99 GiB (68%)
Title : Killers 2014
Writing library : x264 core 142 r2479 dd79a61
Encoding settings : cabac=1 / ref=12 / deblock=1:-3:-3 / analyse=0x3:0x113 / me=umh / subme=11 / psy=1 / psy_rd=1.05:0.00 / mixed_ref=1 / me_range=32 / chroma_me=1 / trellis=2 / 8x8dct=1 / cqm=0 / deadzone=21,11 / fast_pskip=1 / chroma_qp_offset=-2 / threads=6 / lookahead_threads=1 / sliced_threads=0 / nr=0 / decimate=1 / interlaced=0 / bluray_compat=0 / constrained_intra=0 / bframes=9 / b_pyramid=2 / b_adapt=2 / b_bias=0 / direct=3 / weightb=1 / open_gop=0 / weightp=2 / keyint=240 / keyint_min=23 / scenecut=40 / intra_refresh=0 / rc=2pass / mbtree=0 / bitrate=2128 / ratetol=1.0 / qcomp=0.60 / qpmin=0 / qpmax=69 / qpstep=4 / cplxblur=20.0 / qblur=0.5 / ip_ratio=1.40 / pb_ratio=1.30 / aq=2:0.90
Default : Yes
Forced : No
Audio #1
ID : 2
Format : AC-3
Format/Info : Audio Coding 3
Mode extension : CM (complete main)
Format settings, Endianness : Big
Codec ID : A_AC3
Duration : 2h 17mn
Bit rate mode : Constant
Bit rate : 448 Kbps
Channel(s) : 6 channels
Channel positions : Front: L C R, Side: L R, LFE
Sampling rate : 48.0 KHz
Bit depth : 16 bits
Compression mode : Lossy
Stream size : 442 MiB (15%)
Title : RUS AC3 448 6ch DVO DeadSno & den904
Language : Russian
Default : Yes
Forced : No
Audio #2
ID : 3
Format : AC-3
Format/Info : Audio Coding 3
Mode extension : CM (complete main)
Format settings, Endianness : Big
Codec ID : A_AC3
Duration : 2h 17mn
Bit rate mode : Constant
Bit rate : 448 Kbps
Channel(s) : 6 channels
Channel positions : Front: L C R, Side: L R, LFE
Sampling rate : 48.0 KHz
Bit depth : 16 bits
Compression mode : Lossy
Stream size : 442 MiB (15%)
Title : JPN AC3 448 6ch Original
Language : Japanese
Default : No
Forced : No
Text #1
ID : 4
Format : UTF-8
Codec ID : S_TEXT/UTF8
Codec ID/Info : UTF-8 Plain Text
Title : ENG Sub Full
Language : English
Default : No
Forced : No
Text #2
ID : 5
Format : UTF-8
Codec ID : S_TEXT/UTF8
Codec ID/Info : UTF-8 Plain Text
Title : ENG Sub SDH
Language : English
Default : No
Forced : No
Menu
00:00:00.000 : :Chapter 01
00:07:09.929 : :Chapter 02
00:20:39.655 : :Chapter 03
00:29:59.631 : :Chapter 04
00:38:37.524 : :Chapter 05
00:50:07.463 : :Chapter 06
01:00:59.739 : :Chapter 07
01:20:13.600 : :Chapter 08
01:32:58.615 : :Chapter 09
01:44:42.443 : :Chapter 10
01:58:22.929 : :Chapter 11
02:13:53.317 : :Chapter 12-x264 [info]: frame I:1435 Avg QP:14.42 size: 67298
x264 [info]: frame P:43182 Avg QP:17.63 size: 22321
x264 [info]: frame B:153857 Avg QP:20.02 size: 7414
x264 [info]: consecutive B-frames: 2.5% 2.9% 9.8% 13.2% 15.7% 42.6% 6.5% 2.1% 2.4% 2.3%
Скриншот с названием Скриншоты
Скачать

Скачать торрент! Убийцы / Killers (Кимо Стамбол / Kimo Stamboel, Тимо Тьяджанто / Timo Tjahjanto) [2014, Индонезия, Япония, боевик, триллер, драма, криминал, BDRip-AVC] DVO (DeadSno & den904) + Original (Jpn) + Sub (Eng)

Как скачивать? · Что такое торрент? · Рейтинг и ограничения

Сайт не распространяет и не хранит электронные версии произведений, а лишь предоставляет доступ к создаваемому пользователями каталогу ссылок на торрент-файлы, которые содержат только списки хеш-сумм

[Профиль] [ЛС]
Показать сообщения:    
Ответить на тему

Текущее время: Сегодня 11:39

Часовой пояс: GMT + 4



Вы не можете начинать темы
Вы не можете отвечать на сообщения
Вы не можете редактировать свои сообщения
Вы не можете удалять свои сообщения
Вы не можете голосовать в опросах
Вы не можете прикреплять файлы к сообщениям
Вы не можете скачивать файлы