Удар / Kick (Саджид Надьядвала / Sajid Nadiadwala) [2014, Индия, Боевик, триллер, мелодрама, DVDRip] Rus Sub +Original

Ответить на тему
 
Автор Сообщение

user ®

Стаж: 13 лет

Сообщений: 15070

Пост Пост: #1 от 08-Окт-2014 02:05

[Цитировать]

Удар / Kick
-Страна: Индия
Жанр: Боевик, триллер, мелодрама
Год выпуска: 2014
Продолжительность: 02:26:50--Язык: Хинди
Перевод: Субтитры
Cубтитры: Русские
Перевод и редакция: Honey&Haseena--Режиссер: Саджид Надьядвала / Sajid Nadiadwala-В ролях: Салман Кхан, Жаклин Фернандес, Навазуддин Сиддики, Рандип Худа, Митхун Чакраборти, Арчана Пуран Сингх, Сумона Чакраварти, Санджай Мишра, Саурабх Шукла, Раджшри Дешпанде, Раджит Капур, Випин Шарма, Роки Верма, Наргис Факхри (камео)--Описание: Шайна работает психиатром и живёт в Польше вместе со своими родными. Однажды, ее отец, обеспокоенный скорее выдать замуж свою дочь, просит встретить с аэропорта Химаншу Тьяги - сына своего сослуживца. Встретившись, молодые сразу повествуют друг другу о самых главных проблемах в их жизни, Шайна - об экс-бойфренде Деви Лал Сингхе, а Химаншу - о неуловимом грабителе по имени Дьявол...(c) Honey-- | Кинопоиск--Качество видео: DVDRip
Формат видео: AVI-Видео: 720x304 (2.37:1), 23.976 fps, XviD MPEG-4 ~2001 kbps avg, 0.38 bit/pixel
Аудио: 48 kHz, AC3 Dolby Digital, 3/2 (L,C,R,l,r) + LFE ch, ~320 kbps
Формат субтитров: hardsub (неотключаемые, вшитые в картинку)--Сэмпл / Sample--Pелиз от: Honey&Haseena (спасибо!)-- -
-
-Скриншот с названием:
-
Скриншоты:
-
MI
General
Complete name : D:\[DVDRip]\[Rus Sub]\Udar.2014.DVDRip.XviD.HoneyHaseena.avi
Format : AVI
Format/Info : Audio Video Interleave
Format profile : OpenDML
File size : 2.39 GiB
Duration : 2h 26mn
Overall bit rate : 2 329 Kbps
Writing application : VirtualDubMod 1.5.10.2 (build 2542/release)
Writing library : VirtualDubMod build 2542/release
Video
ID : 0
Format : MPEG-4 Visual
Format profile : Advanced Simple@L5
Format settings, BVOP : 1
Format settings, QPel : No
Format settings, GMC : No warppoints
Format settings, Matrix : Default (H.263)
Muxing mode : Packed bitstream
Codec ID : XVID
Codec ID/Hint : XviD
Duration : 2h 26mn
Bit rate : 1 999 Kbps
Width : 720 pixels
Height : 304 pixels
Display aspect ratio : 2.35:1
Frame rate : 23.976 fps
Color space : YUV
Chroma subsampling : 4:2:0
Bit depth : 8 bits
Scan type : Progressive
Compression mode : Lossy
Bits/(Pixel*Frame) : 0.381
Stream size : 2.05 GiB (86%)
Writing library : XviD 1.1.2 (UTC 2006-11-01)
Audio
ID : 1
Format : AC-3
Format/Info : Audio Coding 3
Mode extension : CM (complete main)
Format settings, Endianness : Big
Codec ID : 2000
Duration : 2h 26mn
Bit rate mode : Constant
Bit rate : 320 Kbps
Channel count : 6 channels
Channel positions : Front: L C R, Side: L R, LFE
Sampling rate : 48.0 KHz
Bit depth : 16 bits
Compression mode : Lossy
Stream size : 336 MiB (14%)
Alignment : Split accross interleaves
Interleave, duration : 64 ms (1.53 video frames)
Interleave, preload duration : 500 ms
Скачать

Скачать торрент! Удар / Kick (Саджид Надьядвала / Sajid Nadiadwala) [2014, Индия, Боевик, триллер, мелодрама, DVDRip] Rus Sub +Original

Как скачивать? · Что такое торрент? · Рейтинг и ограничения

Сайт не распространяет и не хранит электронные версии произведений, а лишь предоставляет доступ к создаваемому пользователями каталогу ссылок на торрент-файлы, которые содержат только списки хеш-сумм

[Профиль] [ЛС]
Показать сообщения:    
Ответить на тему

Текущее время: Сегодня 16:53

Часовой пояс: GMT + 4



Вы не можете начинать темы
Вы не можете отвечать на сообщения
Вы не можете редактировать свои сообщения
Вы не можете удалять свои сообщения
Вы не можете голосовать в опросах
Вы не можете прикреплять файлы к сообщениям
Вы не можете скачивать файлы