Одинокий мужчина / A Single Man (Том Форд / Tom Ford) [2009, США, драма, BDRip 720p] Dub + Sub Rus + Original Eng

Ответить на тему
 
Автор Сообщение

user ®

Стаж: 7 лет 7 месяцев

Сообщений: 20008

Пост Пост: #1 от 08-Окт-2014 02:05

[Цитировать]

-Одинокий мужчина / A Single Man- Год выпуска: 2009
Страна: США
Жанр: драма
Продолжительность: 01:40:40
Перевод: Профессиональный (полное дублирование) [ВОЛЬГА]
Cубтитры: русские
Оригинальная аудиодорожка: английский
Режиссер: Том Форд / Tom Ford
Сценарий: Том Форд, Дэвид Скирс, Кристофер Ишервуд
Продюсер: Том Форд, Эндрю Миано, Роберт Салерно
Оператор: Эдуард Грау
Композитор: Абель Коженёвски
В ролях: Колин Фёрт, Мэттью Гуд, Николас Холт, Джулианна Мур, Джон Кортахарена, Полетт Ламори, Райан Симпкинс, Джиннифер Гудвин, Тедди Сирс, Пол Батлер
Описание: Лос-Анджелес, 1962 год. Профессор английской литературы Джордж отводит себе один день для ответа на вопрос, есть ли у него будущее после внезапной смерти любовника Джима, с которым он прожил 16 лет. В рассыпающемся на части мире Джордж ищет утешения у давней подруги Шарлотты, пытается зацепиться за красоту окружающей реальности, чтобы заново открыть смысл жизни.
Сэмпл: https://yadi.sk/i/szafQnhObrFmo

Качество видео: BDRip 720p
Формат видео: MKV
Видео: AVC; 1280x528 (2.40:1); 23,976 fps; 4723 kbps
Аудио: Russian; AC3; 2ch; 44100 Hz; 448 kbps | DUB
Аудио 2: English; DTS; 5.1ch; 48000 HZ; 1509 kbps | ENG
Формат субтитров: softsub (SRT)
Доп. информация о субтитрах: UTF-8
MediaInfo
General
Unique ID : 183260683300969978569335614499305097628 (0x89DEB94852D6C1B3AD1A2C3E7A11099C)
Format : Matroska
Format version : Version 4 / Version 2
File size : 4.68 GiB
Duration : 1h 40mn
Overall bit rate : 6 660 Kbps
Movie name : A Single Man (2009)
Encoded date : UTC 2014-10-04 18:10:26
Writing application : mkvmerge v6.8.0 ('Theme for Great Cities') 32bit built on Mar 2 2014 21:27:07
Writing library : libebml v1.3.0 + libmatroska v1.4.1
Video
ID : 1
Format : AVC
Format/Info : Advanced Video Codec
Format profile : High@L4.1
Format settings, CABAC : Yes
Format settings, ReFrames : 5 frames
Codec ID : V_MPEG4/ISO/AVC
Duration : 1h 40mn
Bit rate : 4 723 Kbps
Width : 1 280 pixels
Height : 528 pixels
Display aspect ratio : 2.40:1
Frame rate mode : Constant
Frame rate : 23.976 fps
Color space : YUV
Chroma subsampling : 4:2:0
Bit depth : 8 bits
Scan type : Progressive
Bits/(Pixel*Frame) : 0.291
Stream size : 3.21 GiB (69%)
Writing library : x264 core 94 r1583 7608d73
Encoding settings : cabac=1 / ref=5 / deblock=1:-1:-1 / analyse=0x3:0x113 / me=umh / subme=9 / psy=1 / psy_rd=1.00:0.00 / mixed_ref=1 / me_range=16 / chroma_me=1 / trellis=1 / 8x8dct=1 / cqm=0 / deadzone=21,11 / fast_pskip=0 / chroma_qp_offset=-2 / threads=12 / sliced_threads=0 / nr=0 / decimate=1 / interlaced=0 / constrained_intra=0 / bframes=3 / b_pyramid=2 / b_adapt=1 / b_bias=0 / direct=3 / weightb=1 / weightp=2 / keyint=250 / keyint_min=25 / scenecut=40 / intra_refresh=0 / rc_lookahead=40 / rc=2pass / mbtree=1 / bitrate=4723 / ratetol=1.0 / qcomp=0.60 / qpmin=10 / qpmax=51 / qpstep=4 / cplxblur=20.0 / qblur=0.5 / ip_ratio=1.40 / aq=1:1.10
Language : English
Default : Yes
Forced : No
Audio #1
ID : 2
Format : AC-3
Format/Info : Audio Coding 3
Mode extension : CM (complete main)
Format settings, Endianness : Big
Codec ID : A_AC3
Duration : 1h 40mn
Bit rate mode : Constant
Bit rate : 448 Kbps
Channel(s) : 2 channels
Channel positions : Front: L R
Sampling rate : 44.1 KHz
Bit depth : 16 bits
Compression mode : Lossy
Stream size : 323 MiB (7%)
Title : Dub
Language : Russian
Default : Yes
Forced : No
Audio #2
ID : 3
Format : DTS
Format/Info : Digital Theater Systems
Mode : 16
Format settings, Endianness : Big
Codec ID : A_DTS
Duration : 1h 40mn
Bit rate mode : Constant
Bit rate : 1 509 Kbps
Channel(s) : 6 channels
Channel positions : Front: L C R, Side: L R, LFE
Sampling rate : 48.0 KHz
Bit depth : 16 bits
Compression mode : Lossy
Stream size : 1.06 GiB (23%)
Title : Original
Language : English
Default : No
Forced : No
Text
ID : 4
Format : UTF-8
Codec ID : S_TEXT/UTF8
Codec ID/Info : UTF-8 Plain Text
Language : Russian
Default : No
Forced : No
Скриншот c названием фильма Скриншоты
Скачать

Скачать торрент!

Как скачивать? · Что такое торрент? · Рейтинг и ограничения

Сайт не распространяет и не хранит электронные версии произведений, а лишь предоставляет доступ к создаваемому пользователями каталогу ссылок на торрент-файлы, которые содержат только списки хеш-сумм

[Профиль] [ЛС]
Показать сообщения:    
Ответить на тему

Текущее время: Сегодня 22:34

Часовой пояс: GMT + 4



Вы не можете начинать темы
Вы не можете отвечать на сообщения
Вы не можете редактировать свои сообщения
Вы не можете удалять свои сообщения
Вы не можете голосовать в опросах
Вы не можете прикреплять файлы к сообщениям
Вы не можете скачивать файлы