Игрушечные солдатики / Toy Soldiers (Дэниэл Петри, мл. / Daniel Petrie, Jr.) [1991, США, боевик, триллер, драма, BDRemux 1080p] 3x MVO + DVO (НТВ+) + AVO (Дохалов) + Original Eng + Sub Eng

Ответить на тему
 
Автор Сообщение

user ®

Стаж: 7 лет 7 месяцев

Сообщений: 20008

Пост Пост: #1 от 07-Окт-2014 22:55

[Цитировать]

Игрушечные солдатики / Toy SoldiersСВЕТЛОЙ ПАМЯТИ Jerome Bernard "Jerry" Orbach_[October 20, 1935 – December 28, 2004]_ & _Denholm Mitchell Elliott_[CBE]_[31 May 1922 – 6 October 1992]_ВЕЛИКИХ АКТЕРОВ_
Страна: США
Жанр: боевик, триллер, драма
Год выпуска: 1991
Продолжительность: 01:52:03
Перевод 1: Профессиональный (многоголосый закадровый)|ОРТ|
Перевод 2: Профессиональный (двухголосый, закадровый)|НТВ+|
Перевод 3: Профессиональный (многоголосый закадровый)|НОРД ВИДЕО|
Перевод 4: Профессиональный (многоголосый закадровый)|SDI MEDIA с канала ТВ 1000|
Перевод 5: Авторский (одноголосый закадровый)|Дохалов, Вартан Карлович|
Cубтитры: английские
Оригинальная аудиодорожка: английский
Режиссер: Дэниэл Петри, мл. / Daniel Petrie, Jr.
В ролях: Шон Эстин, Луис Госсет мл, Джерри Орбак, Денхолм Эллиот, Уил Уитон, Кит Куган, Эндрю Дивофф, Р. Ли Эрми, Мейсон Эдамс, Джордж Перес, Т. Э. Рассел.
Описание: Когда учащиеся элитарного колледжа взяты в заложники южноамериканскими террористами, им ничего не остается, как вступить в смертельную схватку. Сержант армии встает во главе отряда студентов в их отчаянной попытке противостоять террору.
слоган «When terrorists took over Regis High, they expected obedient hostages. What they got was a lesson they'd never forget.»
Все спасибо уходят этим людям.
За работу со звуком огромное спасибо Прагматик.
За исходник спасибо огромное Daddy_BOSS.

Сэмпл:https://www.sendspace.com/file/t4x20d
Тип релиза: BDRemux 1080p
Контейнер: MKV
Видео: 1920x1080 at 23.976 fps, MPEG-4 AVC, ~ 16606 kbps avg
Аудио 1: Russian: 48 kHz, AC3, 2/0 (L,R) ch, ~192.00 kbps avg|MVO, ОРТ|
Аудио 2: Russian: 48 kHz, AC3, 2/0 (L,R) ch, ~192.00 kbps avg |DVO, НТВ+|
Аудио 3: Russian: 48 kHz, AC3, 2/0 (L,R) ch, ~192.00 kbps avg |MVO, НОРД ВИДЕО|
Аудио 4: Russian: 48 kHz, AC3, 2/0 (L,R) ch, ~192.00 kbps avg |MVO, SDI MEDIA с канала ТВ 1000|
Аудио 5: Russian: 48 kHz/16-bit, DTS-HD MA 7.1, ~2595.00 kbps avg (DTS Core: 5.1 / 48 kHz / 768 kbps / 16-bit) |Дохалов, Вартан Карлович|
Аудио 6: English: 48 kHz/16-bit, DTS-HD MA 7.1, ~2581.00 kbps avg (DTS Core: 5.1 / 48 kHz / 768 kbps / 16-bit)
Формат субтитров: softsub (SRT)
MediaInfo
Общее
Уникальный идентификатор : 221545888102935655514152858441234905873 (0xA6AC2F9D63D6D786BD3777BF6BE1FB11)
Полное имя : C:\V.S.P\Игрушечные солдатики_[Toy Soldiers]_1991г_Louis Cameron Gossett, Jr & Sean Patrick Astin & Jerome Bernard_[Jerry]_Orbach_[October 20, 1935 – December 28, 2004]_.mkv
Формат : Matroska
Версия формата : Version 4 / Version 2
Размер файла : 17,7 Гбайт
Продолжительность : 1 ч. 52 м.
Режим общего битрейта : Переменный
Общий поток : 22,6 Мбит/сек
Название фильма : Игрушечные солдатики_[Toy Soldiers]_1991г_Louis Cameron Gossett, Jr & Sean Patrick Astin & Jerome Bernard_[Jerry]_Orbach_[October 20, 1935 – December 28, 2004]_
Дата кодирования : UTC 2014-10-05 13:36:45
Программа кодирования : mkvmerge v6.4.1 ('Omega Point') built on Sep 16 2013 22:05:10
Библиотека кодирования : libebml v1.3.0 + libmatroska v1.4.1
Видео
Идентификатор : 1
Формат : AVC
Формат/Информация : Advanced Video Codec
Профиль формата : High@L4.1
Параметр CABAC формата : Да
Параметр ReFrames формата : 2 кадра
Идентификатор кодека : V_MPEG4/ISO/AVC
Продолжительность : 1 ч. 52 м.
Вид битрейта : Переменный
Максимальный битрейт : 30,2 Мбит/сек
Ширина : 1920 пикселей
Высота : 1080 пикселей
Соотношение сторон : 16:9
Режим частоты кадров : Постоянный
Частота кадров : 23,976 кадра/сек
Цветовое пространство : YUV
Субдискретизация насыщенности : 4:2:0
Битовая глубина : 8 бит
Тип развёртки : Прогрессивная
Заголовок : Игрушечные солдатики_[Toy Soldiers]_1991г_Louis Cameron Gossett, Jr & Sean Patrick Astin & Jerome Bernard "Jerry" Orbach_[October 20, 1935 – December 28, 2004]_
Язык : English
Default : Да
Forced : Нет
Аудио #1
Идентификатор : 2
Формат : AC-3
Формат/Информация : Audio Coding 3
Расширение режима : CM (complete main)
Параметр Endianness формата : Big
Идентификатор кодека : A_AC3
Продолжительность : 1 ч. 52 м.
Вид битрейта : Постоянный
Битрейт : 192 Кбит/сек
Каналы : 2 канала
Расположение каналов : Front: L R
Частота : 48,0 КГц
Битовая глубина : 16 бит
Метод сжатия : С потерями
Размер потока : 154 Мбайт (1%)
Заголовок : |MVO, ОРТ|
Язык : Russian
Default : Да
Forced : Нет
Аудио #2
Идентификатор : 3
Формат : AC-3
Формат/Информация : Audio Coding 3
Расширение режима : CM (complete main)
Параметр Endianness формата : Big
Идентификатор кодека : A_AC3
Продолжительность : 1 ч. 52 м.
Вид битрейта : Постоянный
Битрейт : 192 Кбит/сек
Каналы : 2 канала
Расположение каналов : Front: L R
Частота : 48,0 КГц
Битовая глубина : 16 бит
Метод сжатия : С потерями
Размер потока : 154 Мбайт (1%)
Заголовок : |MVO, НТВ+|
Язык : Russian
Default : Нет
Forced : Нет
Аудио #3
Идентификатор : 4
Формат : AC-3
Формат/Информация : Audio Coding 3
Расширение режима : CM (complete main)
Параметр Endianness формата : Big
Идентификатор кодека : A_AC3
Продолжительность : 1 ч. 52 м.
Вид битрейта : Постоянный
Битрейт : 192 Кбит/сек
Каналы : 2 канала
Расположение каналов : Front: L R
Частота : 48,0 КГц
Битовая глубина : 16 бит
Метод сжатия : С потерями
Размер потока : 154 Мбайт (1%)
Заголовок : |MVO, НОРД ВИДЕО|
Язык : Russian
Default : Нет
Forced : Нет
Аудио #4
Идентификатор : 5
Формат : AC-3
Формат/Информация : Audio Coding 3
Расширение режима : CM (complete main)
Параметр Endianness формата : Big
Идентификатор кодека : A_AC3
Продолжительность : 1 ч. 52 м.
Вид битрейта : Постоянный
Битрейт : 192 Кбит/сек
Каналы : 2 канала
Расположение каналов : Front: L R
Частота : 48,0 КГц
Битовая глубина : 16 бит
Метод сжатия : С потерями
Размер потока : 154 Мбайт (1%)
Заголовок : |MVO, SDI MEDIA с канала ТВ 1000|
Язык : Russian
Default : Нет
Forced : Нет
Аудио #5
Идентификатор : 6
Формат : DTS
Формат/Информация : Digital Theater Systems
Профиль формата : MA / Core
Режим : 16
Параметр Endianness формата : Big
Идентификатор кодека : A_DTS
Продолжительность : 1 ч. 52 м.
Вид битрейта : Переменный
Битрейт : Неизвестно / 768 Кбит/сек
Каналы : 8 каналов / 6 каналов
Расположение каналов : Front: L C R, Side: L R, Back: L R, LFE / Front: L C R, Side: L R, LFE
Частота : 48,0 КГц
Битовая глубина : 16 бит
Метод сжатия : Без потерь / Lossy
Заголовок : |Дохалов, Вартан Карлович|
Язык : Russian
Default : Нет
Forced : Нет
Аудио #6
Идентификатор : 7
Формат : DTS
Формат/Информация : Digital Theater Systems
Профиль формата : MA / Core
Режим : 16
Параметр Endianness формата : Big
Идентификатор кодека : A_DTS
Продолжительность : 1 ч. 52 м.
Вид битрейта : Переменный
Битрейт : Неизвестно / 768 Кбит/сек
Каналы : 8 каналов / 6 каналов
Расположение каналов : Front: L C R, Side: L R, Back: L R, LFE / Front: L C R, Side: L R, LFE
Частота : 48,0 КГц
Битовая глубина : 16 бит
Метод сжатия : Без потерь / Lossy
Язык : English
Default : Нет
Forced : Нет
Текст
Идентификатор : 8
Формат : UTF-8
Идентификатор кодека : S_TEXT/UTF8
Идентификатор кодека/Информация : UTF-8 Plain Text
Заголовок : full
Язык : English
Default : Нет
Forced : Нет
Меню
00:00:00.000 : :00:00:00.000
00:04:22.011 : :00:04:22.011
00:09:20.933 : :00:09:20.933
00:23:31.410 : :00:23:31.410
00:34:28.815 : :00:34:28.815
00:42:24.958 : :00:42:24.958
00:51:44.391 : :00:51:44.391
01:03:58.416 : :01:03:58.416
01:13:09.341 : :01:13:09.341
01:25:29.916 : :01:25:29.916
01:33:49.957 : :01:33:49.957
01:44:45.944 : :01:44:45.944
Доп.информация про релиз
Сохранены оригинальные чаптеры как на Blu-Ray.
Дорожка №5 получена путем наложения чистого голоса на оригинал.
Громадное спасибо formally за DVD с подбором дорог и работу с ними!
За многоголоску ОРТ спасибо an24092008. В данной дорожке цензура 90-х вырезала в паре мест разговоров секунд по 10-15, которые я заткнул вставками многоголоски с НОРД ВИДЕО предоставленную Simpun, многоголоска НОРДА представлена vr666.
Многоголоску SDI MEDIA с канала ТВ 1000 предоставил porhaleks, а двухголоску НТВ+ спасибо edich2.
Скриншоты в жизни & во время съемок
Скачать

Скачать торрент!

Как скачивать? · Что такое торрент? · Рейтинг и ограничения

Сайт не распространяет и не хранит электронные версии произведений, а лишь предоставляет доступ к создаваемому пользователями каталогу ссылок на торрент-файлы, которые содержат только списки хеш-сумм

[Профиль] [ЛС]
Показать сообщения:    
Ответить на тему

Текущее время: Сегодня 03:47

Часовой пояс: GMT + 4



Вы не можете начинать темы
Вы не можете отвечать на сообщения
Вы не можете редактировать свои сообщения
Вы не можете удалять свои сообщения
Вы не можете голосовать в опросах
Вы не можете прикреплять файлы к сообщениям
Вы не можете скачивать файлы