Плохие слова / Bad Words (Джейсон Бейтман / Jason Bateman) [2013, США, Комедия, BDRip 720p] Dub + Sub Rus, Eng + Original Eng

Ответить на тему
 
Автор Сообщение

user ®

Стаж: 7 лет 7 месяцев

Сообщений: 20008

Пост Пост: #1 от 07-Окт-2014 22:55

[Цитировать]

Плохие слова / Bad Words
Страна: США
Жанр: Комедия
Год выпуска: 2013
Продолжительность: 01:29:03
Перевод: Профессиональный (дублированный)
Cубтитры: русские, английские
Оригинальная аудиодорожка: английский
Режиссер: Джейсон Бейтман / Jason Bateman
В ролях: Джейсон Бейтман, Эллисон Джэнни, Кэтрин Хан, Рэйчел Харрис, Бен Фэлкоун, Джудит Хоаг, Филип Бэйкер Холл, Бет Грант, Патриция Белчер, Роэн Чанд
Описание: Фильм рассказывает о мужчине, которому тридцать с лишним лет и который является внебрачным сыном организатора национальных конкурсов по орфографии. В связи с этим им движет чувство мести своему родителю, из-за чего он хочет хочет попасть на этот соревнование и попадает на него, найдя в регламенте конкурса лазейку. Но в конечном итого это состязание по правописанию знакомит нашего главного героя с молодым индийским участником, подружившись с которым, на него как будто бы сходит прозрение и он начинает смотреть на мир совершенно другими глазами.

Тип релиза: BDRip 720p
Контейнер: MKV
Видео: MPEG-4 AVC, 6867 Кбит/с, 1280x534, 23,976 fps
Аудио: Rus: AC3, 384 Kb/s, 6 ch, 48 Кгц
Аудио 2: English: 48 kHz, AC3 Dolby Digital, 3/2 (L,C,R,l,r) + LFE ch, ~640 kbps
Аудио 3: English: 48 kHz, AAC, 2/0 (L,R) ch, ~144 kbps |Commentary with Director Jason Bateman|
Формат субтитров: softsub (SRT)
MediaInfo
Format : Matroska
Format version : Version 4 / Version 2
File size : 5.08 GiB
Duration : 1h 29mn
Overall bit rate : 8 174 Kbps
Encoded date : UTC 2014-10-06 04:12:01
Writing application : mkvmerge v7.1.0 ('Good Love') 64bit built on Jul 27 2014 13:06:55
Writing library : libebml v1.3.0 + libmatroska v1.4.1
_STATISTICS_WRITING_APP : mkvmerge v7.1.0 ('Good Love') 64bit built on Jul 27 2014 13:06:55
_STATISTICS_WRITING_DATE_UTC : 2014-10-06 04:12:01
_STATISTICS_TAGS : BPS DURATION NUMBER_OF_FRAMES NUMBER_OF_BYTES
DURATION : 01:29:02.656000000
NUMBER_OF_FRAMES : 166958
NUMBER_OF_BYTES : 256447488
Video
ID : 1
Format : AVC
Format/Info : Advanced Video Codec
Format profile : High@L4.1
Format settings, CABAC : Yes
Format settings, ReFrames : 12 frames
Codec ID : V_MPEG4/ISO/AVC
Duration : 1h 29mn
Width : 1 280 pixels
Height : 534 pixels
Display aspect ratio : 2.40:1
Frame rate mode : Constant
Frame rate : 23.976 fps
Color space : YUV
Chroma subsampling : 4:2:0
Bit depth : 8 bits
Scan type : Progressive
Writing library : x264 core 142 r2431kMod ac76440
Encoding settings : cabac=1 / ref=12 / deblock=1:-3:-3 / analyse=0x3:0x133 / me=tesa / subme=11 / psy=1 / fade_compensate=0.00 / psy_rd=1.00:0.00 / mixed_ref=1 / me_range=24 / chroma_me=1 / trellis=2 / 8x8dct=1 / cqm=0 / deadzone=21,11 / fast_pskip=0 / chroma_qp_offset=-2 / threads=12 / lookahead_threads=2 / sliced_threads=0 / nr=0 / decimate=1 / interlaced=0 / bluray_compat=0 / constrained_intra=0 / fgo=0 / bframes=9 / b_pyramid=2 / b_adapt=2 / b_bias=0 / direct=3 / weightb=1 / open_gop=0 / weightp=2 / keyint=250 / keyint_min=23 / scenecut=40 / intra_refresh=0 / rc=crf / mbtree=0 / crf=16.3000 / qcomp=0.65 / qpmin=0 / qpmax=69 / qpstep=4 / ip_ratio=1.30 / pb_ratio=1.20 / aq=1:0.85
Language : English
Default : No
Forced : No
_STATISTICS_WRITING_APP : mkvmerge v7.1.0 ('Good Love') 64bit built on Jul 27 2014 13:06:55
_STATISTICS_WRITING_DATE_UTC : 2014-10-06 04:12:01
_STATISTICS_TAGS : BPS DURATION NUMBER_OF_FRAMES NUMBER_OF_BYTES
DURATION : 01:29:02.629000000
NUMBER_OF_FRAMES : 128095
NUMBER_OF_BYTES : 4677810612
Matrix coefficients : BT.709
Audio #1
ID : 2
Format : AC-3
Format/Info : Audio Coding 3
Mode extension : CM (complete main)
Format settings, Endianness : Big
Codec ID : A_AC3
Duration : 1h 29mn
Bit rate mode : Constant
Bit rate : 384 Kbps
Channel(s) : 6 channels
Channel positions : Front: L C R, Side: L R, LFE
Sampling rate : 48.0 KHz
Bit depth : 16 bits
Compression mode : Lossy
Stream size : 245 MiB (5%)
Title : Dub
Language : Russian
Default : Yes
Forced : No
Audio #2
ID : 3
Format : AC-3
Format/Info : Audio Coding 3
Mode extension : CM (complete main)
Format settings, Endianness : Big
Codec ID : A_AC3
Duration : 1h 29mn
Bit rate mode : Constant
Bit rate : 640 Kbps
Channel(s) : 6 channels
Channel positions : Front: L C R, Side: L R, LFE
Sampling rate : 48.0 KHz
Bit depth : 16 bits
Compression mode : Lossy
Stream size : 408 MiB (8%)
Language : English
Default : No
Forced : No
Audio #3
ID : 4
Format : AAC
Format/Info : Advanced Audio Codec
Format profile : LC
Codec ID : A_AAC
Duration : 1h 29mn
Channel(s) : 2 channels
Channel positions : Front: L R
Sampling rate : 48.0 KHz
Compression mode : Lossy
Delay relative to video : 9ms
Title : Commentary with Director Jason Bateman
Language : English
Default : No
Forced : No
Text #1
ID : 5
Format : UTF-8
Codec ID : S_TEXT/UTF8
Codec ID/Info : UTF-8 Plain Text
Title : Russian
Language : Russian
Default : No
Forced : No
Text #2
ID : 6
Format : UTF-8
Codec ID : S_TEXT/UTF8
Codec ID/Info : UTF-8 Plain Text
Language : English
Default : No
Forced : No
Text #3
ID : 7
Format : UTF-8
Codec ID : S_TEXT/UTF8
Codec ID/Info : UTF-8 Plain Text
Title : SDH
Language : English
Default : No
Forced : No
Menu #1
00:00:00.000 : en:00:00:00.000
00:05:48.223 : en:00:05:48.223
00:11:16.426 : en:00:11:16.426
00:14:19.984 : en:00:14:19.984
00:19:31.837 : en:00:19:31.837
00:24:01.690 : en:00:24:01.690
00:27:12.130 : en:00:27:12.130
00:32:05.423 : en:00:32:05.423
00:36:06.915 : en:00:36:06.915
00:40:09.532 : en:00:40:09.532
00:45:48.204 : en:00:45:48.204
00:48:37.832 : en:00:48:37.832
00:55:09.431 : en:00:55:09.431
01:00:34.589 : en:01:00:34.589
01:05:42.438 : en:01:05:42.438
01:08:21.556 : en:01:08:21.556
01:12:16.123 : en:01:12:16.123
01:17:00.533 : en:01:17:00.533
01:21:13.827 : en:01:21:13.827
01:25:53.273 : en:01:25:53.273
Menu #2
00:00:00.054 : en:00:00:00.054
Скриншоты
Скачать

Скачать торрент!

Как скачивать? · Что такое торрент? · Рейтинг и ограничения

Сайт не распространяет и не хранит электронные версии произведений, а лишь предоставляет доступ к создаваемому пользователями каталогу ссылок на торрент-файлы, которые содержат только списки хеш-сумм

[Профиль] [ЛС]
Показать сообщения:    
Ответить на тему

Текущее время: Сегодня 04:17

Часовой пояс: GMT + 4



Вы не можете начинать темы
Вы не можете отвечать на сообщения
Вы не можете редактировать свои сообщения
Вы не можете удалять свои сообщения
Вы не можете голосовать в опросах
Вы не можете прикреплять файлы к сообщениям
Вы не можете скачивать файлы