Где-то, когда-то / Journey / Engeyum Eppothum (М. Сараванан / M. Saravanan) [2011, Индия, Драма, романтика, DVDRip] MVO (Red Media)

Ответить на тему
 
Автор Сообщение

user ®

Стаж: 12 лет

Сообщений: 15092

Пост Пост: #1 от 07-Окт-2014 07:15

[Цитировать]

Где-то, когда-то / Journey
-Страна: Индия
Жанр: Драма, романтика
Год выпуска: 2011
Продолжительность: 02:18:24-Перевод: Профессиональный (многоголосый закадровый) - Red Media (ТК Индия ТВ)
Cубтитры: Нет-Режиссер: М. Сараванан / M. Saravanan-В ролях: Шарвананд, Ананья, Джай, Анджали-Описание: Никогда не знаешь, где встретишь свою судьбу. Робкая провинциалка Амудха (Ананья), приехавшая в Ченнаи на собеседование, найдет ее на автобусной остановке и проведет со своим случайным попутчиком (Шарвананд) незабываемый день. А боевая независимая Манимеккалаи (Анджали) увидит своего застенчивого героя Кадиресана (Джай) на веранде соседнего дома. Кто-то встретит свою судьбу в автобусе Тричи-Ченнаи.
И если ты потерял свою любовь, ты просто можешь сесть на автобус, чтобы снова ее найти. Но на дорогах иногда случаются аварии..
Никогда не знаешь, где ты найдешь свою любовь. Поэтому будь готов к встрече с ней, везде и всегда. (c) Sima Kivi- -Качество видео: DVDRip
Формат видео: AVI-Видео: 720x304 (2.37:1), 23.976 fps, XviD build 50 ~1370 kbps avg, 0.26 bit/pixel
Audio: 48 kHz, MPEG Layer 3, 2 ch, ~128.00 kbps-Сэмпл / Sample-Риппер, синхрон. звука: soso4eg- -
-
Скриншот с названием:
-
Скриншоты:
-
MI
General
Complete name : E:\[ИНДИЯ]\[Релизы]\Gde-to.Kogda-to.2011.DVDRip.XviD-soso4eg.avi
Format : AVI
Format/Info : Audio Video Interleave
File size : 1.46 GiB
Duration : 2h 18mn
Overall bit rate : 1 508 Kbps
Movie name : Journey.2011.DVDRip.XviD-soso4eg
Director : soso4eg
Writing application : VirtualDubMod 1.5.10.3 | www.virtualdub-fr.org || (build 2550/release)
Writing library : VirtualDubMod build 2550/release
Copyright : специально для BitTorrent трекер *** (ex torrents.ru)
Comment : пер. Red Media
Video
ID : 0
Format : MPEG-4 Visual
Format profile : Advanced Simple@L5
Format settings, BVOP : 1
Format settings, QPel : No
Format settings, GMC : No warppoints
Format settings, Matrix : Default (H.263)
Codec ID : XVID
Codec ID/Hint : XviD
Duration : 2h 18mn
Bit rate : 1 371 Kbps
Width : 720 pixels
Height : 304 pixels
Display aspect ratio : 2.35:1
Frame rate : 23.976 fps
Color space : YUV
Chroma subsampling : 4:2:0
Bit depth : 8 bits
Scan type : Progressive
Compression mode : Lossy
Bits/(Pixel*Frame) : 0.261
Stream size : 1.33 GiB (91%)
Writing library : XviD 1.2.1 (UTC 2008-12-04)
Audio
ID : 1
Format : MPEG Audio
Format version : Version 1
Format profile : Layer 3
Mode : Joint stereo
Mode extension : MS Stereo
Codec ID : 55
Codec ID/Hint : MP3
Duration : 2h 18mn
Bit rate mode : Constant
Bit rate : 128 Kbps
Channel count : 2 channels
Sampling rate : 48.0 KHz
Compression mode : Lossy
Stream size : 127 MiB (8%)
Alignment : Aligned on interleaves
Interleave, duration : 42 ms (1.00 video frame)
Interleave, preload duration : 504 ms
Скачать

Скачать торрент! Где-то, когда-то / Journey / Engeyum Eppothum (М. Сараванан / M. Saravanan) [2011, Индия, Драма, романтика, DVDRip] MVO (Red Media)

Как скачивать? · Что такое торрент? · Рейтинг и ограничения

Сайт не распространяет и не хранит электронные версии произведений, а лишь предоставляет доступ к создаваемому пользователями каталогу ссылок на торрент-файлы, которые содержат только списки хеш-сумм

[Профиль] [ЛС]
Показать сообщения:    
Ответить на тему

Текущее время: Сегодня 12:42

Часовой пояс: GMT + 4



Вы не можете начинать темы
Вы не можете отвечать на сообщения
Вы не можете редактировать свои сообщения
Вы не можете удалять свои сообщения
Вы не можете голосовать в опросах
Вы не можете прикреплять файлы к сообщениям
Вы не можете скачивать файлы