Девушка входит в бар / Girl Walks Into A Bar (Себастьян Гутьеррес / Sebastian Gutierrez) [2011, США, драма, комедия, криминал, BDRip 720p] MVO + Sub Rus, Eng + Original Eng

Ответить на тему
 
Автор Сообщение

user ®

Стаж: 7 лет 7 месяцев

Сообщений: 20008

Пост Пост: #1 от 07-Окт-2014 07:15

[Цитировать]

Девушка входит в бар / Girl Walks Into A Bar- Страна: США
Жанр: драма, комедия, криминал
Год выпуска: 2011
Продолжительность: 1:18:48
Перевод: Профессиональный (двухголосый закадровый)
Cубтитры: Rus, Eng
Оригинальная аудиодорожка: английский
Режиссер: Себастьян Гутьеррес / Sebastian Gutierrez
В ролях:
Карла Гуджино / Carla Gugino
Дэнни ДеВито / Danny DeVito
Розарио Доусон / Rosario Dawson
Джош Хартнетт / Josh Hartnett
Ксандер Беркли, Алексис Бледел, Эммануэль Шрики, Роберт Форстер, Закари Куинто, Джил Беллоуз-ОписаниеНезадачливый стоматолог Николас назначает встречу с потенциальным убийцей, чтобы внести последние штрихи в план по убийству своей жены. Цена назначена, но, сам того не зная, Ник приводит в действие цепь событий, которые обернутся путешествием сквозь бары, стриптиз-клубы и совсем уж нестандартные заведения ночного Лос-Анджелеса. Гангстеры, бармены, экзотические танцовщицы, девушка-гардеробщица и нудисты, мошенники и копы — кого только ни встретишь за одну короткую ночь…-Сэмпл

IMDb: 5.80 (3673)
Качество видео: BDRip 720p Girl Walks Into a Bar 2011 1080p Blu-ray Remux AVC DTS-HD MA 5.1
Формат видео: MKV
Видео: AVC 3235 Kbps 1280 x 534 (2.400) 23.976 fps
Аудио: AC-3 384 Kbps 6 channels, 48.0 KHz MVO Rus
Аудио 2: AC-3 384 Kbps 6 channels, 48.0 KHz Eng
Формат субтитров: softsub (SRT)
MediaInfo | Log
Log
x264 [info]: frame I:924 Avg QP:13.92 size: 68020
x264 [info]: frame P:20790 Avg QP:15.48 size: 32713
x264 [info]: frame B:91631 Avg QP:17.02 size: 13266
x264 [info]: consecutive B-frames: 1.4% 1.0% 3.1% 8.6% 13.6% 57.2% 7.4% 1.7% 1.9% 1.3% 0.8% 0.4% 1.6%
x264 [info]: mb I I16..4: 7.5% 76.2% 16.3%
x264 [info]: mb P I16..4: 2.2% 17.2% 2.2% P16..4: 27.8% 33.8% 12.9% 0.9% 0.1% skip: 2.9%
x264 [info]: mb B I16..4: 1.0% 3.2% 0.4% B16..8: 32.0% 23.8% 5.1% direct: 8.5% skip:26.0% L0:50.9% L1:39.6% BI: 9.5%
x264 [info]: 8x8 transform intra:75.0% inter:65.7%
x264 [info]: coded y,uvDC,uvAC intra: 62.4% 88.5% 79.1% inter: 24.5% 43.6% 14.9%
x264 [info]: i16 v,h,dc,p: 55% 13% 11% 21%
x264 [info]: i8 v,h,dc,ddl,ddr,vr,hd,vl,hu: 11% 7% 23% 8% 9% 10% 9% 10% 12%
x264 [info]: i4 v,h,dc,ddl,ddr,vr,hd,vl,hu: 17% 9% 30% 6% 8% 8% 7% 7% 9%
x264 [info]: i8c dc,h,v,p: 53% 21% 16% 10%
x264 [info]: Weighted P-Frames: Y:3.7% UV:3.0%
x264 [info]: ref P L0: 37.0% 5.7% 18.8% 8.2% 7.4% 5.3% 5.1% 2.9% 2.8% 2.3% 2.3% 2.1% 0.1% 0.0%
x264 [info]: ref B L0: 55.5% 14.7% 8.9% 5.3% 4.1% 3.5% 2.9% 2.0% 1.7% 1.0% 0.4%
x264 [info]: ref B L1: 89.3% 10.7%
x264 [info]: kb/s:3314.32
x264 [total]: encoded 113345 frames, 7.92 fps, 3314.32 kb/s, duration 3:58:33.49
Format : Matroska
Format version : Version 4 / Version 2
File size : 2.25 GiB
Duration : 1h 18mn
Overall bit rate : 4 084 Kbps
Encoded date : UTC 2014-10-04 21:32:18
Writing application : mkvmerge v6.7.0 ('Back to the Ground') 32bit built on Jan 8 2014 15:03:17
Writing library : libebml v1.3.0 + libmatroska v1.4.1
Video
ID : 1
Format : AVC
Format/Info : Advanced Video Codec
Format profile : High@L4.1
Format settings, CABAC : Yes
Format settings, ReFrames : 12 frames
Codec ID : V_MPEG4/ISO/AVC
Duration : 1h 18mn
Bit rate : 3 235 Kbps
Width : 1 280 pixels
Height : 534 pixels
Display aspect ratio : 2.40:1
Frame rate mode : Constant
Frame rate : 23.976 fps
Color space : YUV
Chroma subsampling : 4:2:0
Bit depth : 8 bits
Scan type : Progressive
Bits/(Pixel*Frame) : 0.197
Stream size : 1.78 GiB (79%)
Writing library : x264 core 142 r2453kMod ea0ca51
Encoding settings : cabac=1 / ref=12 / deblock=1:-3:-2 / analyse=0x3:0x133 / me=umh / subme=11 / psy=1 / fade_compensate=0.00 / psy_rd=1.00:0.05 / mixed_ref=1 / me_range=32 / chroma_me=1 / trellis=2 / 8x8dct=1 / cqm=0 / deadzone=21,11 / fast_pskip=0 / chroma_qp_offset=-3 / threads=12 / lookahead_threads=3 / sliced_threads=0 / nr=0 / decimate=1 / interlaced=0 / bluray_compat=0 / constrained_intra=0 / fgo=0 / bframes=12 / b_pyramid=2 / b_adapt=2 / b_bias=0 / direct=1 / weightb=1 / open_gop=0 / weightp=2 / keyint=250 / keyint_min=23 / scenecut=40 / intra_refresh=0 / rc_lookahead=60 / rc=crf / mbtree=0 / crf=18.3000 / qcomp=0.60 / qpmin=0 / qpmax=69 / qpstep=4 / vbv_maxrate=50000 / vbv_bufsize=62500 / crf_max=0.0 / nal_hrd=none / filler=0 / ip_ratio=1.40 / pb_ratio=1.30 / aq=3:0.90
Language : English
Default : Yes
Forced : No
Audio #1
ID : 2
Format : AC-3
Format/Info : Audio Coding 3
Mode extension : CM (complete main)
Format settings, Endianness : Big
Codec ID : A_AC3
Duration : 1h 18mn
Bit rate mode : Constant
Bit rate : 384 Kbps
Channel(s) : 6 channels
Channel positions : Front: L C R, Side: L R, LFE
Sampling rate : 48.0 KHz
Bit depth : 16 bits
Compression mode : Lossy
Stream size : 216 MiB (9%)
Title : MVO
Language : Russian
Default : Yes
Forced : No
Audio #2
ID : 3
Format : AC-3
Format/Info : Audio Coding 3
Mode extension : CM (complete main)
Format settings, Endianness : Big
Codec ID : A_AC3
Duration : 1h 18mn
Bit rate mode : Constant
Bit rate : 384 Kbps
Channel(s) : 6 channels
Channel positions : Front: L C R, Side: L R, LFE
Sampling rate : 48.0 KHz
Bit depth : 16 bits
Compression mode : Lossy
Stream size : 216 MiB (9%)
Title : Original
Language : English
Default : No
Forced : No
Text #1
ID : 4
Format : UTF-8
Codec ID : S_TEXT/UTF8
Codec ID/Info : UTF-8 Plain Text
Language : Russian
Default : No
Forced : No
Text #2
ID : 5
Format : UTF-8
Codec ID : S_TEXT/UTF8
Codec ID/Info : UTF-8 Plain Text
Language : English
Default : No
Forced : No
Menu
00:00:00.000 : en:00:00:00.000
00:10:19.953 : en:00:10:19.953
00:15:50.116 : en:00:15:50.116
00:30:06.179 : en:00:30:06.179
00:43:09.921 : en:00:43:09.921
01:02:24.616 : en:01:02:24.616
Скриншоты | Rip vs Source
Скачать

Скачать торрент!

Как скачивать? · Что такое торрент? · Рейтинг и ограничения

Сайт не распространяет и не хранит электронные версии произведений, а лишь предоставляет доступ к создаваемому пользователями каталогу ссылок на торрент-файлы, которые содержат только списки хеш-сумм

[Профиль] [ЛС]
Показать сообщения:    
Ответить на тему

Текущее время: Сегодня 10:51

Часовой пояс: GMT + 4



Вы не можете начинать темы
Вы не можете отвечать на сообщения
Вы не можете редактировать свои сообщения
Вы не можете удалять свои сообщения
Вы не можете голосовать в опросах
Вы не можете прикреплять файлы к сообщениям
Вы не можете скачивать файлы