Рога / Horns (Александр Ажа / Alexandre Aja) [2013, США, Канада, ужасы, фэнтези, триллер, драма, WEB-DL 720p] VO (Матвеев) + Sub Eng + Original Eng

Ответить на тему
 
Автор Сообщение

user ®

Стаж: 7 лет 7 месяцев

Сообщений: 20008

Пост Пост: #1 от 07-Окт-2014 07:15

[Цитировать]

Рога / Horns Страна: США, Канада
Жанр: ужасы, фэнтези, триллер, драма
Год выпуска: 2013
Продолжительность: 01:59:55
Перевод: одноголосый закадровый (Алексей "Doctor Joker" Матвеев)
Cубтитры: английские
Оригинальная аудиодорожка: английская
Режиссер: Александр Ажа / Alexandre Aja
В ролях: Джуно Темпл, Дэниэл Рэдклифф, Хэзер Грэм, Сабрина Карпентер, Келли Гарнер, Джо Андерсон, Макс Мингелла, Джеймс Римар, Дэвид Морс, Кэтлин Куинлен
Описание: История простого американского парня по имени Иг Перриш, который просыпается рано утром с диким похмельем и обнаруживает, что у него на голове выросли настоящие рога.
Вместе с рогами у героя появляется еще одно дьявольское качество: в присутствии Перриша люди начинают говорить то, что думают на самом деле, и все грязные секреты оказываются на поверхности. Теперь Иг может узнать, кто на самом деле убил его девушку, поскольку в этом преступлении обвиняют его самого, хоть и бездоказательно.
Доп. информация: Внимание! Присутствует ненормативная лексика. Сведение звука - sashock86
Sample
Тип релиза: WEB-DL 720p
Контейнер: MKV
Видео: x264 High@L3.1, 1280x532, 23,976 fps, 3933 kbps, 0.241 bit/pixel
Аудио #1: AC3, 5.1 ch, 48 kHz, 384 kbps [Russian]
Аудио #2: AC3, 5.1 ch, 48 kHz, 384 kbps [English]
Формат субтитров: softsub (SRT)
MediaInfo
Общее
Уникальный идентификатор                 : 230594655783122890100945248244300183809 (0xAD7AEA4E673A2867931475D08F62F901)
Полное имя                               : Roga.2013.WEB-DL.720p.AC3.Matveev.mkv
Формат                                   : Matroska
Версия формата                           : Version 2
Размер файла                             : 4,02 Гбайт
Продолжительность                        : 1 ч. 59 м.
Общий поток                              : 4797 Кбит/сек
Название фильма                          : Рога / Horns (2013)
Дата кодирования                         : UTC 2014-10-05 00:17:58
Программа кодирования                    : mkvmerge v4.9.1 ('Ich will') сборка от Jul 11 2011 23:53:15
Библиотека кодирования                   : libebml v1.2.1 + libmatroska v1.1.1
Видео
Идентификатор                            : 1
Формат                                   : AVC
Формат/Информация                        : Advanced Video Codec
Профиль формата                          : Main@L3.1
Параметр CABAC формата                   : Нет
Параметр ReFrames формата                : 2 кадра
Идентификатор кодека                     : V_MPEG4/ISO/AVC
Продолжительность                        : 1 ч. 59 м.
Битрейт                                  : 3933 Кбит/сек
Ширина                                   : 1280 пикселей
Высота                                   : 532 пикселя
Соотношение сторон                       : 2,40:1
Режим частоты кадров                     : Постоянный
Частота кадров                           : 23,976 кадра/сек
Цветовое пространство                    : YUV
Субдискретизация насыщенности            : 4:2:0
Битовая глубина                          : 8 бит
Тип развёртки                            : Прогрессивная
Бит/(Пиксели*Кадры)                      : 0.241
Размер потока                            : 3,29 Гбайт (82%)
Язык                                     : English
Default                                  : Да
Forced                                   : Нет
Основные цвета                           : BT.709
Характеристики трансфера                 : BT.709
Коэффициенты матрицы                     : BT.709
Аудио #1
Идентификатор                            : 2
Формат                                   : AC-3
Формат/Информация                        : Audio Coding 3
Расширение режима                        : CM (complete main)
Параметр Endianness формата              : Big
Идентификатор кодека                     : A_AC3
Продолжительность                        : 1 ч. 59 м.
Вид битрейта                             : Постоянный
Битрейт                                  : 384 Кбит/сек
Каналы                                   : 6 каналов
Расположение каналов                     : Front: L C R, Side: L R, LFE
Частота                                  : 48,0 КГц
Битовая глубина                          : 16 бит
Метод сжатия                             : С потерями
Размер потока                            : 329 Мбайт (8%)
Заголовок                                : А. Матвеев
Язык                                     : Russian
Default                                  : Да
Forced                                   : Нет
Аудио #2
Идентификатор                            : 3
Формат                                   : AC-3
Формат/Информация                        : Audio Coding 3
Расширение режима                        : CM (complete main)
Параметр Endianness формата              : Big
Идентификатор кодека                     : A_AC3
Продолжительность                        : 1 ч. 59 м.
Вид битрейта                             : Постоянный
Битрейт                                  : 384 Кбит/сек
Каналы                                   : 6 каналов
Расположение каналов                     : Front: L C R, Side: L R, LFE
Частота                                  : 48,0 КГц
Битовая глубина                          : 16 бит
Метод сжатия                             : С потерями
Размер потока                            : 329 Мбайт (8%)
Язык                                     : English
Default                                  : Нет
Forced                                   : Нет
Текст
Идентификатор                            : 4
Формат                                   : UTF-8
Идентификатор кодека                     : S_TEXT/UTF8
Идентификатор кодека/Информация          : UTF-8 Plain Text
Язык                                     : English
Default                                  : Нет
Forced                                   : Нет
Меню
00:00:00.000                             : en:Chapter 01
00:06:52.000                             : en:Chapter 02
00:13:50.000                             : en:Chapter 03
00:20:52.000                             : en:Chapter 04
00:29:12.000                             : en:Chapter 05
00:36:16.000                             : en:Chapter 06
00:43:37.000                             : en:Chapter 07
00:53:09.000                             : en:Chapter 08
01:01:24.000                             : en:Chapter 09
01:09:49.000                             : en:Chapter 10
01:16:41.000                             : en:Chapter 11
01:23:55.000                             : en:Chapter 12
01:32:14.000                             : en:Chapter 13
01:38:55.000                             : en:Chapter 14
01:49:05.000                             : en:Chapter 15
01:52:21.000                             : en:Chapter 16
Скриншоты
Скачать

Скачать торрент!

Как скачивать? · Что такое торрент? · Рейтинг и ограничения

Сайт не распространяет и не хранит электронные версии произведений, а лишь предоставляет доступ к создаваемому пользователями каталогу ссылок на торрент-файлы, которые содержат только списки хеш-сумм

[Профиль] [ЛС]
Показать сообщения:    
Ответить на тему

Текущее время: Сегодня 09:46

Часовой пояс: GMT + 4



Вы не можете начинать темы
Вы не можете отвечать на сообщения
Вы не можете редактировать свои сообщения
Вы не можете удалять свои сообщения
Вы не можете голосовать в опросах
Вы не можете прикреплять файлы к сообщениям
Вы не можете скачивать файлы