Люди Икс: Дни минувшего будущего / X-Men: Days of Future Past (Брайан Сингер / Bryan Singer) [2014, США, Великобритания, фантастика, фэнтези, боевик, приключения, BDRemux 1080p] Dub + VO + Sub Rus, Ukr, Eng + Original Eng

Ответить на тему
 
Автор Сообщение

user ®

Стаж: 7 лет 7 месяцев

Сообщений: 20008

Пост Пост: #1 от 07-Окт-2014 00:35

[Цитировать]

Люди Икс: Дни минувшего будущего / X-Men: Days of Future Past Страна: США, Великобритания
Студия: 20th Century Fox Film Corporation, Bad Hat Harry Productions, Marvel Entertainment, Marv Films, Dune
Жанр: фантастика, фэнтези, боевик, приключения
Год выпуска: 2014
Продолжительность: 02:11:35
Перевод 1: Профессиональный (дублированный)Blu-ray CEE
Перевод 2: Одноголосый (закадровый)В.Белов
Cубтитры: Russian (Forced, Full, Notabenoid), Ukrainian(Forced, Full), English (Forced, Full, SDH)
Оригинальная аудиодорожка: английский
Режиссер: Брайан Сингер / Bryan Singer
В ролях: Майкл Фассбендер, Джеймс МакЭвой, Хью Джекман, Дженнифер Лоуренс, Иэн МакКеллен, Патрик Стюарт, Николас Холт, Эллен Пейдж, Холли Берри, Питер Динклэйдж
Описание: В недалёком будущем мутанты близки к истреблению роботами-охотниками на мутантов Стражами. Единственная надежда для мутантов выжить — предотвратить череду роковых событий, приведших к появлению Стражей. С помощью своих способностей, Китти Прайд перемещает сознание Росомахи в его молодое тело в 1973 год. В прошлом всё оказывается не так радужно: молодой Профессор Икс окончательно разочарован в своих идеях, Магнето содержится в тюрьме глубоко под землёй, а человечество не знает как реагировать на широкое появление мутантов…

Тип релиза: BDRemux 1080p
Контейнер: MKV
Видео: AVC, 1920x1080, 23034kbps, 23.976 fps
Аудио 1: Russian: 48 kHz, DTS, 3/2 (L,C,R,l,r) + LFE ch, ~768.00 kbps avg |Blu-ray CEE|
Аудио 2: Ukrainian: 48 kHz, AC3, 3/2 (L,C,R,l,r) + LFE ch, ~448.00 kbps |Blu-ray CEE|
Аудио 3: Russian: 48 kHz, AC3, 3/2 (L,C,R,l,r) + LFE ch, ~448.00 kbps avg |В.Белов|
Аудио 4: DTS-HD Master Audio English 5490 kbps 7.1 / 48 kHz / 5490 kbps / 24-bit (DTS Core: 5.1 / 48 kHz / 1509 kbps / 24-bit) |Original|
Чаптеры:есть

Доп.информация
За блюрей спасибо HDCLUB
MediaInfo
General
Unique ID : 182464432286390122162509904579147636752 (0x89455F1395D49F0A94E90259D8F8A010)
Complete name : D:\рипы\X-Men.Days.of.Future.Past.2014.1080p.Remux.AVC.DTS-HD.MA.7.1-Talian-.mkv
Format : Matroska
Format version : Version 2
File size : 27.5 GiB
Duration : 2h 11mn
Overall bit rate mode : Variable
Overall bit rate : 29.9 Mbps
Movie name : X-Men: Days of Future Past-Talian-
Encoded date : UTC 2014-10-04 19:16:00
Writing application : mkvmerge v5.7.0 ('The Whirlwind') built on Jul 8 2012 20:08:51
Writing library : libebml v1.2.3 + libmatroska v1.3.0
Attachment : Yes
Video
ID : 1
Format : AVC
Format/Info : Advanced Video Codec
Format profile : High@L4.1
Format settings, CABAC : Yes
Format settings, ReFrames : 4 frames
Codec ID : V_MPEG4/ISO/AVC
Duration : 2h 11mn
Bit rate mode : Variable
Bit rate : 26.1 Mbps
Maximum bit rate : 32.7 Mbps
Width : 1 920 pixels
Height : 1 080 pixels
Display aspect ratio : 16:9
Frame rate : 23.976 fps
Color space : YUV
Chroma subsampling : 4:2:0
Bit depth : 8 bits
Scan type : Progressive
Bits/(Pixel*Frame) : 0.524
Stream size : 24.0 GiB (87%)
Title : BDRemux
Language : English
Default : Yes
Forced : No
Audio #1
ID : 2
Format : DTS
Format/Info : Digital Theater Systems
Codec ID : A_DTS
Duration : 2h 11mn
Bit rate mode : Constant
Bit rate : 755 Kbps
Channel(s) : 6 channels
Channel positions : Front: L C R, Side: L R, LFE
Sampling rate : 48.0 KHz
Bit depth : 24 bits
Compression mode : Lossy
Stream size : 710 MiB (3%)
Title : DUB- Blu-ray CEE
Language : Russian
Default : Yes
Forced : No
Audio #2
ID : 3
Format : AC-3
Format/Info : Audio Coding 3
Mode extension : CM (complete main)
Format settings, Endianness : Big
Codec ID : A_AC3
Duration : 2h 11mn
Bit rate mode : Constant
Bit rate : 448 Kbps
Channel(s) : 6 channels
Channel positions : Front: L C R, Side: L R, LFE
Sampling rate : 48.0 KHz
Bit depth : 16 bits
Compression mode : Lossy
Stream size : 422 MiB (1%)
Title : DUB- Blu-ray CEE
Language : Ukrainian
Default : No
Forced : No
Audio #3
ID : 4
Format : AC-3
Format/Info : Audio Coding 3
Mode extension : CM (complete main)
Format settings, Endianness : Big
Codec ID : A_AC3
Duration : 2h 11mn
Bit rate mode : Constant
Bit rate : 448 Kbps
Channel(s) : 6 channels
Channel positions : Front: L C R, Side: L R, LFE
Sampling rate : 48.0 KHz
Bit depth : 16 bits
Compression mode : Lossy
Stream size : 422 MiB (1%)
Title : VO-Вадим Белов
Language : Russian
Default : No
Forced : No
Audio #4
ID : 5
Format : DTS
Format/Info : Digital Theater Systems
Format profile : MA / Core
Codec ID : A_DTS
Duration : 2h 11mn
Bit rate mode : Variable
Bit rate : 1 597 Kbps / 1 510 Kbps
Channel(s) : 8 channels / 6 channels
Channel positions : Front: L C R, Side: L R, Back: L R, LFE / Front: L C R, Side: L R, LFE
Sampling rate : 48.0 KHz
Bit depth : 24 bits
Compression mode : Lossless / Lossy
Title : Original
Language : English
Default : No
Forced : No
Text #1
ID : 6
Format : UTF-8
Codec ID : S_TEXT/UTF8
Codec ID/Info : UTF-8 Plain Text
Title : Sub-forced
Language : Russian
Default : Yes
Forced : No
Text #2
ID : 7
Format : UTF-8
Codec ID : S_TEXT/UTF8
Codec ID/Info : UTF-8 Plain Text
Title : Sub-full
Language : Russian
Default : No
Forced : No
Text #3
ID : 8
Format : UTF-8
Codec ID : S_TEXT/UTF8
Codec ID/Info : UTF-8 Plain Text
Title : Sub-Notabenoid
Language : Russian
Default : No
Forced : No
Text #4
ID : 9
Format : UTF-8
Codec ID : S_TEXT/UTF8
Codec ID/Info : UTF-8 Plain Text
Title : Sub-forced
Language : Ukrainian
Default : No
Forced : No
Text #5
ID : 10
Format : UTF-8
Codec ID : S_TEXT/UTF8
Codec ID/Info : UTF-8 Plain Text
Title : Sub-full
Language : Ukrainian
Default : No
Forced : No
Text #6
ID : 11
Format : UTF-8
Codec ID : S_TEXT/UTF8
Codec ID/Info : UTF-8 Plain Text
Title : Sub-Forced
Language : English
Default : No
Forced : No
Text #7
ID : 12
Format : UTF-8
Codec ID : S_TEXT/UTF8
Codec ID/Info : UTF-8 Plain Text
Title : Sub-full
Language : English
Default : No
Forced : No
Text #8
ID : 13
Format : UTF-8
Codec ID : S_TEXT/UTF8
Codec ID/Info : UTF-8 Plain Text
Title : Sub-SDH
Language : English
Default : No
Forced : No
Menu
00:00:00.000 : en:Chapter 01
00:03:33.338 : en:Chapter 02
00:08:00.688 : en:Chapter 03
00:10:28.628 : en:Chapter 04
00:13:58.045 : en:Chapter 05
00:17:02.021 : en:Chapter 06
00:20:16.089 : en:Chapter 07
00:22:11.330 : en:Chapter 08
00:26:37.887 : en:Chapter 09
00:30:32.038 : en:Chapter 10
00:34:29.776 : en:Chapter 11
00:36:00.992 : en:Chapter 12
00:38:18.087 : en:Chapter 13
00:40:37.101 : en:Chapter 14
00:45:53.792 : en:Chapter 15
00:48:53.847 : en:Chapter 16
00:51:58.156 : en:Chapter 17
00:54:43.113 : en:Chapter 18
00:57:51.426 : en:Chapter 19
01:00:48.186 : en:Chapter 20
01:03:26.594 : en:Chapter 21
01:07:09.567 : en:Chapter 22
01:09:43.596 : en:Chapter 23
01:13:11.470 : en:Chapter 24
01:15:31.860 : en:Chapter 25
01:17:27.726 : en:Chapter 26
01:19:30.098 : en:Chapter 27
01:24:50.710 : en:Chapter 28
01:26:58.254 : en:Chapter 29
01:31:04.250 : en:Chapter 30
01:34:03.679 : en:Chapter 31
01:37:33.180 : en:Chapter 32
01:41:54.817 : en:Chapter 33
01:44:52.995 : en:Chapter 34
01:47:19.808 : en:Chapter 35
01:51:29.766 : en:Chapter 36
01:56:42.745 : en:Chapter 37
02:00:12.413 : en:Chapter 38
02:02:34.972 : en:Chapter 39
02:10:31.907 : en:Chapter 40
Скриншоты
Скачать

Скачать торрент!

Как скачивать? · Что такое торрент? · Рейтинг и ограничения

Сайт не распространяет и не хранит электронные версии произведений, а лишь предоставляет доступ к создаваемому пользователями каталогу ссылок на торрент-файлы, которые содержат только списки хеш-сумм

[Профиль] [ЛС]
Показать сообщения:    
Ответить на тему

Текущее время: Сегодня 04:17

Часовой пояс: GMT + 4



Вы не можете начинать темы
Вы не можете отвечать на сообщения
Вы не можете редактировать свои сообщения
Вы не можете удалять свои сообщения
Вы не можете голосовать в опросах
Вы не можете прикреплять файлы к сообщениям
Вы не можете скачивать файлы