Судная ночь 2 / The Purge: Anarchy (Джеймс ДеМонако / James DeMonaco) [2014, США, Франция, триллер, криминал, боевик, WEB-DLRip] Dub (iTunes)

Ответить на тему
 
Автор Сообщение

user ®

Стаж: 7 лет 7 месяцев

Сообщений: 20008

Пост Пост: #1 от 07-Окт-2014 00:35

[Цитировать]

Судная ночь 2 / The Purge: Anarchy

Год выпуска: 2014
Страна: США, Франция
Жанр: триллер, криминал, боевик
Продолжительность: 01:43:28
Перевод: Профессиональный (полное дублирование) - iTunes
Cубтитры: нет
Режиссер: Джеймс ДеМонако /James DeMonaco
В ролях: Фрэнк Грилло, Кармен Эджого, Зак Гилфорд, Киле Санчес, Майкл К. Уильямс, Зои Борд, Жустина Мачадо, Джон Бизли, Джек Конли, Ноэль Гульеми
Описание: Добро пожаловать в идеальный мир будущего, мир без преступности и войн. И только один раз в году роскошная спокойная жизнь сменяется анархией. Этой ночью дозволено все: во тьме улиц одни жаждут мести, другие ищут развлечений, остальные пытаются дожить до рассвета...
Автор: Scarabey
Качество видео: WEB-DLRip - исходник WEB-DL 720р
Формат видео: AVI
Видео: 688x288 (2.39:1), 23.976 fps, XviD build 73 ~869 kbps avg, 0.18 bit/pixel
Аудио: 48 kHz, MPEG Layer 3, 2 ch, ~128.00 kbps avg

Сэмпл MediaInfo
Общее
Полное имя : D:\Фильмы\Sudnaya_noch_2.2014_WEB-DLRip_[Scarabey].avi
Формат : AVI
Формат/Информация : Audio Video Interleave
Размер файла : 745 Мбайт
Продолжительность : 1 ч. 43 м.
Общий поток : 1007 Кбит/сек
Программа кодирования : VirtualDubMod 1.5.10.3 | www.virtualdub-fr.org || (build 2550/release)
Библиотека кодирования : VirtualDubMod build 2550/release
Видео
Идентификатор : 0
Формат : MPEG-4 Visual
Профиль формата : Advanced Simple@L5
Параметр BVOP формата : 1
Параметр QPel формата : Нет
Параметр GMC формата : Без точки перехода
Параметр матрицы формата : Выборочная
Идентификатор кодека : XVID
Идентификатор кодека/Подсказка : XviD
Продолжительность : 1 ч. 43 м.
Битрейт : 870 Кбит/сек
Ширина : 688 пикселей
Высота : 288 пикселей
Соотношение сторон : 2,40:1
Частота кадров : 23,976 кадра/сек
Цветовое пространство : YUV
Субдискретизация насыщенности : 4:2:0
Битовая глубина : 8 бит
Тип развёртки : Прогрессивная
Метод сжатия : С потерями
Бит/(Пиксели*Кадры) : 0.183
Размер потока : 644 Мбайт (86%)
Библиотека кодирования : XviD 73
Аудио
Идентификатор : 1
Формат : MPEG Audio
Версия формата : Version 1
Профиль формата : Layer 3
Идентификатор кодека : 55
Идентификатор кодека/Подсказка : MP3
Продолжительность : 1 ч. 43 м.
Вид битрейта : Постоянный
Битрейт : 128 Кбит/сек
Каналы : 2 канала
Частота : 48,0 КГц
Метод сжатия : С потерями
Размер потока : 94,7 Мбайт (13%)
Выравнивание : Соединение по промежуткам
Продолжительность промежутка : 42 мс. (1,00 видеокадр)
Время предзагрузки промежутка : 504 мс.
Библиотека кодирования : LAME3.99r
Настройки программы : -m s -V 4 -q 2 -lowpass 17 -b 128
Скриншот с названием фильма Скриншоты
Скачать

Скачать торрент!

Как скачивать? · Что такое торрент? · Рейтинг и ограничения

Сайт не распространяет и не хранит электронные версии произведений, а лишь предоставляет доступ к создаваемому пользователями каталогу ссылок на торрент-файлы, которые содержат только списки хеш-сумм

[Профиль] [ЛС]
Показать сообщения:    
Ответить на тему

Текущее время: Сегодня 22:24

Часовой пояс: GMT + 4



Вы не можете начинать темы
Вы не можете отвечать на сообщения
Вы не можете редактировать свои сообщения
Вы не можете удалять свои сообщения
Вы не можете голосовать в опросах
Вы не можете прикреплять файлы к сообщениям
Вы не можете скачивать файлы