Одна встреча / Une rencontre (Лиза Азуэлос / Lisa Azuelos) [2014, Франция, мелодрама, драма, HDRip] Dub

Ответить на тему
 
Автор Сообщение

user ®

Стаж: 7 лет 7 месяцев

Сообщений: 20008

Пост Пост: #1 от 07-Окт-2014 00:35

[Цитировать]

Одна встреча / Une rencontre

Год выпуска: 2014
Страна: Франция
Жанр: мелодрама, драма
Продолжительность: 01:21:30
Перевод: Профессиональный (полное дублирование) - Лицензия
Cубтитры: нет
Режиссер: Лиза Азуэлос / Lisa Azuelos
В ролях: Софи Марсо, Франсуа Клюзе, Лиза Азуэлос, Александр Астье, Артур Бензакен, Джонатан Коэн, Нильс Шнайдер, Стефани Мурат, Оливия Коте, Сайрус Шахиди
Описание: Случайная встреча семьянина с красивой женщиной порождает взаимное притяжение между ними… До встречи друг с другом Эльза и Пьер жили счастливыми, размеренными жизнями со своими семьями. Но знакомство переворачивает их судьбы с ног на голову. С первой же минуты их захватывает чувство настолько сильное, что они не могут ему противостоять. Сперва Эльза и Пьер поддаются захватившей их страсти, но, не желая причинять боль близким, они принимают решение расстаться. Однако неумолимая судьба снова и снова сводит их друг с другом. Их жизни переплетаются все сильнее, границы реальности размываются, и не воплощенные фантазии захватывают влюбленных.
Автор: Scarabey
Качество видео: HDRip - исходник BDRip 720p
Формат видео: AVI
Видео: 720x304 (2.37:1), 24 fps, XviD build 73 ~1139 kbps avg, 0.22 bit/pixel
Аудио: 48 kHz, MPEG Layer 3, 2 ch, ~128.00 kbps avg

Сэмпл MediaInfo
Общее
Полное имя : D:\Фильмы\Une.rencontre.2014_HDRip_[Scarabey].avi
Формат : AVI
Формат/Информация : Audio Video Interleave
Размер файла : 745 Мбайт
Продолжительность : 1 ч. 21 м.
Общий поток : 1277 Кбит/сек
Программа кодирования : VirtualDubMod 1.5.10.3 | www.virtualdub-fr.org || (build 2550/release)
Библиотека кодирования : VirtualDubMod build 2550/release
Видео
Идентификатор : 0
Формат : MPEG-4 Visual
Профиль формата : Advanced Simple@L5
Параметр BVOP формата : 1
Параметр QPel формата : Нет
Параметр GMC формата : Без точки перехода
Параметр матрицы формата : Выборочная
Идентификатор кодека : XVID
Идентификатор кодека/Подсказка : XviD
Продолжительность : 1 ч. 21 м.
Битрейт : 1140 Кбит/сек
Ширина : 720 пикселей
Высота : 304 пикселя
Соотношение сторон : 2,35:1
Частота кадров : 24,000 кадра/сек
Цветовое пространство : YUV
Субдискретизация насыщенности : 4:2:0
Битовая глубина : 8 бит
Тип развёртки : Прогрессивная
Метод сжатия : С потерями
Бит/(Пиксели*Кадры) : 0.217
Размер потока : 665 Мбайт (89%)
Библиотека кодирования : XviD 73
Аудио
Идентификатор : 1
Формат : MPEG Audio
Версия формата : Version 1
Профиль формата : Layer 3
Идентификатор кодека : 55
Идентификатор кодека/Подсказка : MP3
Продолжительность : 1 ч. 21 м.
Вид битрейта : Постоянный
Битрейт : 128 Кбит/сек
Каналы : 2 канала
Частота : 48,0 КГц
Метод сжатия : С потерями
Размер потока : 74,6 Мбайт (10%)
Выравнивание : Соединение по промежуткам
Продолжительность промежутка : 42 мс. (1,00 видеокадр)
Время предзагрузки промежутка : 504 мс.
Библиотека кодирования : LAME3.99r
Настройки программы : -m s -V 4 -q 2 -lowpass 17 -b 128
Скриншот с названием фильма Скриншоты Сравнения
[url=http://***/forum/viewtopic.php?t=4806811]http://***/forum/viewtopic.php?t=4806811[/url] http://screenshotcomparison.com/comparison/94532
Скачать

Скачать торрент!

Как скачивать? · Что такое торрент? · Рейтинг и ограничения

Сайт не распространяет и не хранит электронные версии произведений, а лишь предоставляет доступ к создаваемому пользователями каталогу ссылок на торрент-файлы, которые содержат только списки хеш-сумм

[Профиль] [ЛС]
Показать сообщения:    
Ответить на тему

Текущее время: Сегодня 12:54

Часовой пояс: GMT + 4



Вы не можете начинать темы
Вы не можете отвечать на сообщения
Вы не можете редактировать свои сообщения
Вы не можете удалять свои сообщения
Вы не можете голосовать в опросах
Вы не можете прикреплять файлы к сообщениям
Вы не можете скачивать файлы